<?xml version="1.0" standalone="no"?>
<!DOCTYPE svg PUBLIC "-//W3C//DTD SVG 1.1//EN" "http://www.w3.org/Graphics/SVG/1.1/DTD/svg11.dtd" >
<svg xmlns="http://www.w3.org/2000/svg">
<metadata></metadata>
<defs>
<font id="activitimodelerregular" horiz-adv-x="2048" >
<font-face units-per-em="2048" ascent="1638" descent="-410" />
<missing-glyph horiz-adv-x="500" />
<glyph horiz-adv-x="0" />
<glyph unicode="&#xd;" />
<glyph unicode="a" d="M0 128q0 -34 23 -57t57 -23h1840q22 0 40 11t29 29t11 40v760v640q0 14 -7 31t-17 27l-440 440q-10 8 -26 15t-30 7h-1400h-1h-3h-4q-30 -2 -51 -26t-21 -54v-1840zM160 208v1680h160v-520q0 -32 16 -60t44 -44t60 -16h800q32 0 60 16t44 44t16 60v520h88l392 -392v-608 v-680h-160v600q0 34 -23 57t-57 23h-1200h-4h-4q-30 -2 -51 -26t-21 -54v-600h-160zM480 208v520h1040v-520h-1040zM960 1448v400q0 16 12 28t28 12h160q16 0 28 -12t12 -28v-400q0 -10 -5 -20t-15 -15t-20 -5h-160q-10 0 -20 5t-15 15t-5 20z" />
<glyph unicode="b" d="M80 128l522 264l-258 258zM472 780l260 -260l914 916l-258 258zM1518 1828l262 -262l62 66q28 28 28 65t-28 65l-128 128q-10 10 -21 16t-23 9t-24 3q-34 0 -62 -28z" />
<glyph unicode="c" d="M41 1513q11 -69 55 -135q82 -126 244 -205q138 -67 267 -67q23 0 45 2q70 6 128 36q22 -8 41 -15l38 -14t35 -13t26 -10q0 -2 1 -8t1 -8v-14v-16v-2v-10v-12v-10l-1 -6t-1 -8q-14 -6 -34 -14t-56 -20t-52 -18q-56 28 -126 34q-24 3 -48 3q-51 0 -105 -12 q-79 -17 -159 -55q-162 -78 -244 -204q-60 -91 -60 -175q0 -53 24 -103q32 -64 96 -100t144 -44q23 -2 46 -2q130 0 266 66q160 78 244 206q59 89 59 171q0 44 -17 87q28 26 49 45t35 33q458 -296 826 -486q26 -14 54 -4t49 25t37 33q24 30 27 73v8q0 38 -25 69 q-232 200 -542 430q146 106 280 214t262 216q14 16 21 37q5 16 5 32v9q-2 20 -10 39t-18 33q-54 63 -108 63l-12 -1q-8 0 -20 -6q-368 -190 -826 -486q-10 8 -24 22t-28 26t-32 28q16 40 16 81v9q-2 46 -16 88t-42 82q-84 128 -244 206q-136 66 -266 66h-8t-38 -4 q-80 -6 -144 -42t-96 -102q-22 -53 -22 -104q0 -18 3 -37zM233 1535q-2 10 -2 17q0 12 5 18q2 2 5 6t7 8t9 7t12 6t14 5t17 4t22 4q13 1 25 1q87 0 183 -47q112 -52 164 -132q27 -41 27 -71q0 -13 -5 -23q-8 -14 -28 -26t-58 -14q-15 -2 -30 -1q-83 0 -178 45 q-110 54 -164 136q-20 32 -25 57zM236 518q-5 11 -5 23q0 30 27 71q54 80 164 134q82 40 164 46q24 2 44 0q38 -4 58 -15t28 -25q2 -8 3 -16t0 -20t-7 -27t-18 -31q-52 -80 -164 -134q-93 -46 -177 -45q-16 0 -31 1q-70 6 -86 38zM1074 1056q0 28 20 48t48 20t48 -20t20 -48 q0 -18 -9 -34t-25 -25t-34 -9q-28 0 -48 20t-20 48z" />
<glyph unicode="d" d="M80 668q0 -40 30 -70t70 -30h638v-340q0 -26 14 -49t37 -37t49 -14h902q40 0 70 30t30 70v1200q0 40 -30 70t-70 30h-462q-16 0 -32 -8q-10 -6 -12 -8q-6 -4 -22 -18q-18 -16 -58 -54q-8 -6 -27 -25l-25 -25v478q0 40 -30 70t-70 30h-462q-18 0 -32 -8q-10 -6 -12 -8 q-6 -4 -22 -18q-18 -16 -58 -54q-84 -78 -168 -160q-82 -82 -160 -166q-40 -42 -54 -60q-14 -14 -18 -22q-4 -6 -8 -10q-8 -16 -8 -34v-760zM200 688v660h420h80v500h362v-576q-80 -78 -154 -158q-40 -42 -56 -60q-12 -14 -16 -22q-6 -6 -8 -10q-10 -16 -10 -34v-300h-618z M252 1468l2 2v2q60 62 160 162t162 158l2 2l2 2v-328h-328zM938 248v660h420h80v500h362v-1160h-862zM990 1028l1 1l3 3q58 62 158 162t162 158l2 2l2 2v-328h-328z" />
<glyph unicode="e" d="M80 528q0 -50 35 -85t85 -35h618v-180q0 -26 14 -49t37 -37t49 -14h902q40 0 70 30t30 70v1200q0 40 -30 70t-70 30h-380v320q0 50 -35 85t-85 35h-1120q-50 0 -85 -35t-35 -85v-1320zM360 1768v40q0 16 12 28t28 12h720q16 0 28 -12t12 -28v-40q0 -16 -12 -28t-28 -12 h-720q-16 0 -28 12t-12 28zM938 248v660h420h80v500h362v-1160h-862zM990 1028l1 1l3 3q58 62 158 162t162 158l2 2l2 2v-328h-328z" />
<glyph unicode="f" d="M280 1518q0 -10 5 -20t15 -15t20 -5h80v-1026q0 -72 49 -123t119 -51h864q70 0 119 51t49 123v1026h80q16 0 28 12t12 28v40q0 10 -5 20t-15 15t-20 5h-276q0 2 -2 2l-200 200q-6 8 -19 13t-23 5h-320h-4h-2q-22 -2 -36 -18l-200 -200q-2 0 -2 -2h-276q-10 0 -20 -5 t-15 -15t-5 -20v-40zM520 452v1026h960v-1026q0 -24 -14 -39t-34 -15h-864q-10 0 -19 4t-15 11t-10 17t-4 22zM640 618q0 -24 18 -42t42 -18h40q24 0 42 18t18 42v640q0 24 -18 42t-42 18h-40q-24 0 -42 -18t-18 -42v-640zM764 1598l100 100h272l100 -100h-472zM920 618 q0 -24 18 -42t42 -18h40q24 0 42 18t18 42v640q0 24 -18 42t-42 18h-40q-24 0 -42 -18t-18 -42v-640zM1200 618q0 -24 18 -42t42 -18h40q24 0 42 18t18 42v640q0 24 -18 42t-42 18h-40q-24 0 -42 -18t-18 -42v-640z" />
<glyph unicode="g" d="M240 1188q0 -24 18 -42t42 -18h442q40 0 54 36q6 14 6 26q0 22 -18 40l-144 144q92 108 230 152q74 24 149 24q65 0 131 -18q202 -54 305 -233q68 -117 68 -244q0 -67 -19 -136q-54 -201 -233 -305q-118 -68 -245 -68q-66 0 -134 18q-128 34 -224 130l-172 -168 q142 -142 334 -192q96 -26 192 -26t191 26q191 52 331 191t192 333q24 100 24 199q0 17 -1 35q-5 116 -49 224t-113 196t-169 154t-216 98q-94 24 -192 24h-28q-150 -6 -285 -70t-235 -174l-130 130q-20 20 -48 16q-22 -2 -38 -20t-16 -40v-442z" />
<glyph unicode="h" d="M264 857q-26 96 -26 192.5t26 191.5q52 191 191 331t333 192q18 4 37 8t37 7t37 5t37 3t36 1h36q150 -6 285 -70t235 -174l130 130q20 20 48 16q22 -2 38 -20t16 -40v-442q0 -24 -18 -42t-42 -18h-442q-40 0 -54 36q-6 14 -6 26q0 22 18 40l144 144q-92 108 -230 152 q-74 24 -149 24q-65 0 -131 -18q-202 -54 -305 -233q-68 -117 -68 -244q0 -67 19 -136q54 -201 233 -305q118 -68 245 -68q66 0 134 18q128 34 224 130l172 -168q-142 -142 -334 -192q-96 -26 -192 -26t-191 26q-191 52 -331 191t-192 332z" />
<glyph unicode="i" d="M80 1344q0 -56 40 -96t96 -40h184l-40 120h-144q-16 0 -16 16v264v186q0 14 16 14h104h344q16 0 16 -14v-190l120 -36v226q0 54 -40 94t-96 40h-448q-56 0 -96 -40t-40 -94v-450zM412 1522l106 -356q4 -16 23 -19t29 9l68 94l156 -156q18 -18 42 -18t40 16l6 8 q16 16 16 40t-18 40l-156 156l92 66q12 10 9 29t-19 23l-356 106h-8h-6q-14 -2 -21 -14q-4 -8 -4 -15q0 -5 1 -9zM1063 931q-1 -6 -1 -13q0 -9 2 -17q4 -15 16 -25l156 -156l-92 -66q-12 -10 -9 -29t19 -23l356 -106h4h4h6q14 2 21 14t3 24l-106 356q-4 16 -23 19t-29 -9 l-68 -94l-156 156q-18 18 -42 18h-5q-21 0 -35 -16l-6 -8q-12 -10 -15 -25zM1160 264q0 -56 40 -96t96 -40h448q56 0 96 40t40 96v448q0 36 -18 68t-49 50t-69 18h-184l40 -120h144q16 0 16 -16v-264v-184q0 -16 -16 -16h-104h-344q-16 0 -16 16v188l-120 36v-224z" />
<glyph unicode="j" d="M120 306q0 -56 41 -97t97 -41h1484q38 0 70 19t50 51t18 68v1484q0 58 -40 98t-98 40h-1484q-58 0 -98 -40t-40 -98v-1484zM240 306v1484q0 18 18 18h1484q18 0 18 -18v-1484q0 -18 -18 -18h-1484q-18 0 -18 18zM322 1676l140 -480q6 -22 32 -26t40 14l90 126l162 -162 q16 -16 36 -21t40 -1t36 20l8 8q22 22 22 54t-24 56l-162 162l122 88q18 14 14 40t-26 32l-480 140q-8 4 -11 4t-9 -2q-18 -4 -27 -20q-5 -10 -5 -19q0 -7 2 -13zM1098 830l162 -162l-122 -88q-18 -12 -14 -38t24 -32l482 -142q7 -3 13 -3l7 1q16 4 26 20q6 10 6 20 q0 6 -2 12l-142 480q-6 22 -32 26t-38 -14l-90 -126l-164 162q-22 24 -55 25h-3q-31 0 -52 -21l-10 -10q-21 -21 -21 -51q0 -34 25 -59z" />
<glyph unicode="k" d="M120 1148q0 -200 99 -370t269 -269t370 -99q230 0 420 132l6 -6l208 -208l112 -112q20 -20 54 -34t62 -14q66 0 113 47t47 113q0 28 -14 61t-34 53l-114 112l-206 208q-8 8 -16 14q102 172 102 372q0 150 -59 287t-158 236t-236 157t-287 58t-286 -58t-235 -157 t-158 -236t-59 -287zM358 1148q0 208 146 355t354 147q138 0 253 -67t182 -183t67 -252q0 -208 -147 -355t-355 -147t-354 147t-146 355zM518 1088q0 -16 12 -28t28 -12h200v-200q0 -16 12 -28t28 -12h120q18 0 29 12t11 28v200h200q18 0 29 12t11 28v120q0 16 -11 28 t-29 12h-200v200q0 16 -11 28t-29 12h-120q-16 0 -28 -12t-12 -28v-200h-200q-16 0 -28 -12t-12 -28v-120z" />
<glyph unicode="l" d="M120 1148q0 -200 99 -370t269 -269t370 -99q230 0 420 132l6 -6l208 -208l112 -112q48 -48 114 -48t114 46q22 22 35 52t13 62q0 66 -48 114l-114 112l-206 208q-8 8 -16 14q102 172 102 372q0 150 -59 287t-158 236t-236 157t-287 58t-286 -58t-235 -157t-158 -236 t-59 -287zM358 1148q0 208 146 355t354 147q138 0 253 -67t182 -183t67 -252q0 -208 -147 -355t-355 -147t-354 147t-146 355zM518 1088q0 -16 12 -28t28 -12h600q18 0 29 12t11 28v120q0 16 -11 28t-29 12h-600q-16 0 -28 -12t-12 -28v-120z" />
<glyph unicode="m" d="M120 1146q0 -200 99 -370t269 -269t370 -99q230 0 420 132l6 -6l208 -208l112 -112q46 -46 115 -46t114 44t45 113t-46 115l-114 112l-206 208q-8 6 -16 14q102 172 102 372t-99 370t-269 269t-371 99t-371 -99t-269 -269t-99 -370zM358 1146q0 208 146 355t354 147 q138 0 253 -67t182 -183t67 -252q0 -208 -147 -355t-355 -147t-354 147t-146 355zM638 1246q142 22 192 44h8v-524h160v760h-160q-10 -54 -38 -87t-67 -48t-95 -21v-124z" />
<glyph unicode="n" d="M200 510q0 -108 77 -185t184 -77t184 77t77 185q0 26 -5 51t-15 48t-24 44t-31 39t-39 32l72 406h2q98 0 168 69t72 167l386 108q16 -32 41 -59t54 -46t65 -30t74 -11q106 0 183 77t77 184t-77 184t-183 77q-64 0 -120 -29t-92 -79t-46 -112l-414 -114q-72 94 -188 94 q-100 0 -170 -71t-70 -169q0 -112 86 -184l-74 -416q-52 -2 -99 -23t-81 -56t-54 -83t-20 -98zM362 510q0 42 29 70t71 28t70 -28t28 -70t-28 -71t-70 -29t-71 29t-29 71zM992 658q0 -20 14 -34t36 -14h240v-252q0 -20 14 -34t34 -14h142q14 0 25 6t18 17t7 25v252h240 q20 0 34 14t14 34v142q0 20 -14 35t-34 15h-240v244q0 20 -15 35t-35 15h-142q-20 0 -34 -15t-14 -35v-244h-240q-22 0 -36 -15t-14 -35v-142zM1442 1589q0 27 13 50t36 36t50 13t50 -13t36 -36t13 -50t-13 -50t-36 -36t-50 -13t-50 13t-36 36t-13 50z" />
<glyph unicode="o" d="M200 510q0 -108 77 -185t184 -77t184 77t77 185q0 26 -5 51t-15 48t-24 44t-31 39t-39 32l72 406h2q98 0 168 69t72 167l386 108q16 -32 41 -59t54 -46t65 -30t74 -11q106 0 183 77t77 184t-77 184t-183 77q-64 0 -120 -29t-92 -79t-46 -112l-414 -114q-72 94 -188 94 q-100 0 -170 -71t-70 -169q0 -112 86 -184l-74 -416q-52 -2 -99 -23t-81 -56t-54 -83t-20 -98zM362 510q0 42 29 70t71 28t70 -28t28 -70t-28 -71t-70 -29t-71 29t-29 71zM992 658q0 -20 14 -34t36 -14h720q20 0 34 14t14 34v142q0 20 -14 35t-34 15h-720q-22 0 -36 -15 t-14 -35v-142zM1442 1589q0 27 13 50t36 36t50 13t50 -13t36 -36t13 -50t-13 -50t-36 -36t-50 -13t-50 13t-36 36t-13 50z" />
<glyph unicode="p" d="M200 1008q0 -16 12 -28t28 -12h160v-240q0 -34 23 -57t57 -23h240q34 0 57 23t23 57v240h240v-520q0 -66 47 -113t113 -47h240q66 0 113 47t47 113v520h160q16 0 28 12t12 28v80q0 16 -12 28t-28 12h-160v520q0 66 -47 113t-113 47h-240q-66 0 -113 -47t-47 -113v-520 h-240v240q0 34 -23 57t-57 23h-240q-34 0 -57 -23t-23 -57v-240h-160q-16 0 -28 -12t-12 -28v-80zM1200 448v1200h240v-1200h-240z" />
<glyph unicode="q" d="M240 608q0 -66 47 -113t113 -47h520v-160q0 -16 12 -28t28 -12h80q16 0 28 12t12 28v160h520q66 0 113 47t47 113v240q0 66 -47 113t-113 47h-520v240h240q34 0 57 23t23 57v240q0 34 -23 57t-57 23h-240v160q0 16 -12 28t-28 12h-80q-16 0 -28 -12t-12 -28v-160h-240 q-34 0 -57 -23t-23 -57v-240q0 -34 23 -57t57 -23h240v-240h-520q-66 0 -113 -47t-47 -113v-240zM400 608v240h1200v-240h-1200z" />
<glyph unicode="&#x2000;" horiz-adv-x="1024" />
<glyph unicode="&#x2001;" />
<glyph unicode="&#x2002;" horiz-adv-x="1024" />
<glyph unicode="&#x2003;" />
<glyph unicode="&#x2004;" horiz-adv-x="682" />
<glyph unicode="&#x2005;" horiz-adv-x="512" />
<glyph unicode="&#x2006;" horiz-adv-x="341" />
<glyph unicode="&#x2007;" horiz-adv-x="341" />
<glyph unicode="&#x2008;" horiz-adv-x="256" />
<glyph unicode="&#x2009;" horiz-adv-x="409" />
<glyph unicode="&#x200a;" horiz-adv-x="113" />
<glyph unicode="&#x202f;" horiz-adv-x="409" />
<glyph unicode="&#x205f;" horiz-adv-x="512" />
<glyph unicode="&#x25fc;" horiz-adv-x="1000" d="M0 0z" />
</font>
</defs>
</svg>
