<?xml version="1.0" standalone="no"?>
<!DOCTYPE svg PUBLIC "-//W3C//DTD SVG 1.1//EN" "http://www.w3.org/Graphics/SVG/1.1/DTD/svg11.dtd" >
<!--
2013-9-30: Created.
-->
<svg>
<metadata>
Created by iconfont
</metadata>
<defs>

<font id="iconfont" horiz-adv-x="1024" >
  <font-face
    font-family="iconfont"
    font-weight="500"
    font-stretch="normal"
    units-per-em="1024"
    ascent="896"
    descent="-128"
  />
    <missing-glyph />
    
    <glyph glyph-name="x" unicode="x" horiz-adv-x="1001"
d="M281 543q-27 -1 -53 -1h-83q-18 0 -36.5 -6t-32.5 -18.5t-23 -32t-9 -45.5v-76h912v41q0 16 -0.5 30t-0.5 18q0 13 -5 29t-17 29.5t-31.5 22.5t-49.5 9h-133v-97h-438v97zM955 310v-52q0 -23 0.5 -52t0.5 -58t-10.5 -47.5t-26 -30t-33 -16t-31.5 -4.5q-14 -1 -29.5 -0.5
t-29.5 0.5h-32l-45 128h-439l-44 -128h-29h-34q-20 0 -45 1q-25 0 -41 9.5t-25.5 23t-13.5 29.5t-4 30v167h911zM163 247q-12 0 -21 -8.5t-9 -21.5t9 -21.5t21 -8.5q13 0 22 8.5t9 21.5t-9 21.5t-22 8.5zM316 123q-8 -26 -14 -48q-5 -19 -10.5 -37t-7.5 -25t-3 -15t1 -14.5
t9.5 -10.5t21.5 -4h37h67h81h80h64h36q23 0 34 12t2 38q-5 13 -9.5 30.5t-9.5 34.5q-5 19 -11 39h-368zM336 498v228q0 11 2.5 23t10 21.5t20.5 15.5t34 6h188q31 0 51.5 -14.5t20.5 -52.5v-227h-327z" />
    

    
    <glyph glyph-name="daisuifang-icon-green" unicode="&#58881;" d="M940.8 160c-12.8 12.8-25.6 32-38.4 51.2-12.8 19.2-25.6 38.4-38.4 64-12.8 19.2-25.6 44.8-32 70.4-6.4 19.2-12.8 44.8-12.8 64 0 38.4-6.4 70.4-19.2 96-12.8 25.6-25.6 57.6-44.8 76.8-19.2 25.6-44.8 44.8-70.4 57.6-12.8 19.2-25.6 25.6-44.8 32l-19.2 12.8h-12.8c19.2 25.6 32 51.2 32 83.2 0 70.4-57.6 128-128 128S384 838.4 384 768c0-32 12.8-57.6 32-83.2h-6.4c-32-6.4-57.6-19.2-76.8-38.4-51.2-32-89.6-76.8-115.2-134.4-12.8-32-19.2-64-12.8-102.4 0-25.6-6.4-44.8-12.8-64-12.8-25.6-19.2-51.2-32-70.4-12.8-19.2-25.6-44.8-38.4-64-12.8-25.6-32-44.8-38.4-57.6-25.6-38.4-19.2-70.4-6.4-96 19.2-32 44.8-44.8 76.8-44.8h697.6c19.2 0 51.2 12.8 57.6 19.2 19.2 6.4 25.6 19.2 32 32 12.8 12.8 12.8 32 19.2 44.8 0 12.8-6.4 38.4-19.2 51.2zM512 832c38.4 0 64-25.6 64-64 0-32-25.6-64-64-64s-64 32-64 64 25.6 64 64 64z m377.6-742.4c0-6.4-6.4-6.4-12.8-6.4s-25.6-6.4-32-12.8h-704c-6.4 0-12.8 6.4-19.2 19.2 0 6.4-6.4 12.8 6.4 25.6l38.4 57.6c12.8 25.6 32 44.8 44.8 70.4 12.8 25.6 25.6 51.2 38.4 83.2 12.8 25.6 19.2 57.6 19.2 89.6 0 76.8 38.4 140.8 102.4 185.6 12.8 12.8 38.4 19.2 51.2 25.6l38.4 12.8H512c44.8 0 76.8-12.8 76.8-12.8 25.6-6.4 44.8-19.2 64-25.6 19.2-12.8 38.4-25.6 51.2-44.8 12.8-19.2 25.6-38.4 32-64 6.4-25.6 12.8-51.2 12.8-76.8 0-32 6.4-64 12.8-89.6 12.8-25.6 19.2-57.6 38.4-83.2 12.8-25.6 25.6-51.2 44.8-70.4 12.8-19.2 32-38.4 44.8-57.6 6.4-6.4 6.4-6.4 6.4-12.8 0 0 0-6.4-6.4-12.8z m-217.6-140.8c19.2 0 32-12.8 32-32s-12.8-32-32-32h-320c-19.2 0-32 12.8-32 32s12.8 32 32 32h320z"  horiz-adv-x="1024" />

    
    <glyph glyph-name="yisuifang-icon-green" unicode="&#58882;" d="M819.2-110.933333H210.488889c-11.377778 0-22.755556 0-34.133333 5.688889-11.377778 5.688889-22.755556 11.377778-28.444445 17.066666s-17.066667 17.066667-22.755555 28.444445c-11.377778 17.066667-11.377778 28.444444-11.377778 39.822222V594.488889c0 11.377778 0 22.755556 5.688889 34.133333 5.688889 11.377778 11.377778 22.755556 22.755555 28.444445 5.688889 11.377778 17.066667 17.066667 28.444445 22.755555 11.377778 5.688889 22.755556 5.688889 34.133333 5.688889h91.022222v-45.511111H210.488889c-28.444444 0-45.511111-22.755556-45.511111-45.511111v-614.4c0-22.755556 22.755556-45.511111 45.511111-45.511111h608.711111c28.444444 0 45.511111 22.755556 45.511111 45.511111V594.488889c0 22.755556-22.755556 45.511111-45.511111 45.511111h-91.022222v45.511111h91.022222c11.377778 0 22.755556 0 34.133333-5.688889 11.377778-5.688889 22.755556-11.377778 28.444445-17.066666 11.377778-5.688889 17.066667-17.066667 22.755555-28.444445 5.688889-11.377778 5.688889-22.755556 5.688889-39.822222v-614.4c0-11.377778 0-22.755556-5.688889-34.133333-5.688889-11.377778-11.377778-22.755556-22.755555-28.444445s-17.066667-17.066667-28.444445-17.066667c-11.377778-5.688889-22.755556-11.377778-34.133333-11.377777zM295.822222 679.822222H210.488889c-11.377778 0-22.755556 0-34.133333-5.688889-11.377778-5.688889-22.755556-11.377778-28.444445-17.066666-11.377778-5.688889-17.066667-17.066667-22.755555-28.444445-5.688889-11.377778-5.688889-22.755556-5.688889-34.133333v-614.4c0-11.377778 0-22.755556 5.688889-34.133333 5.688889-11.377778 11.377778-17.066667 17.066666-28.444445 5.688889-5.688889 17.066667-17.066667 28.444445-17.066667 11.377778-5.688889 22.755556-5.688889 34.133333-5.688888h608.711111c11.377778 0 22.755556 0 34.133333 5.688888 11.377778 5.688889 17.066667 11.377778 28.444445 17.066667 5.688889 5.688889 17.066667 17.066667 17.066667 28.444445 5.688889 11.377778 5.688889 22.755556 5.688888 34.133333V594.488889c0 11.377778 0 22.755556-5.688888 34.133333-5.688889 11.377778-11.377778 17.066667-17.066667 28.444445-5.688889 5.688889-17.066667 11.377778-22.755556 17.066666-11.377778 5.688889-22.755556 5.688889-34.133333 5.688889h-85.333333v-34.133333h85.333333c28.444444 0 51.2-22.755556 51.2-51.2v-614.4c0-28.444444-22.755556-51.2-51.2-51.2H210.488889c-28.444444 0-51.2 22.755556-51.2 51.2V594.488889c0 28.444444 22.755556 51.2 51.2 51.2h85.333333v34.133333z m-85.333333-796.444444c-11.377778 0-28.444444 0-39.822222 5.688889-11.377778 5.688889-22.755556 11.377778-34.133334 22.755555-11.377778 11.377778-17.066667 17.066667-22.755555 28.444445-5.688889 11.377778-5.688889 22.755556-5.688889 39.822222V594.488889c0 11.377778 0 28.444444 5.688889 39.822222 5.688889 11.377778 11.377778 22.755556 22.755555 28.444445 11.377778 11.377778 22.755556 17.066667 34.133334 22.755555 11.377778 5.688889 22.755556 5.688889 39.822222 5.688889h91.022222l5.688889-5.688889v-45.511111l-5.688889-5.688889H210.488889c-22.755556 0-39.822222-17.066667-39.822222-39.822222v-614.4c0-22.755556 17.066667-39.822222 39.822222-39.822222h608.711111c22.755556 0 39.822222 17.066667 39.822222 39.822222V594.488889c0 22.755556-17.066667 39.822222-39.822222 39.822222h-91.022222l-5.688889 5.688889v45.511111l5.688889 5.688889h91.022222c11.377778 0 28.444444 0 39.822222-5.688889 11.377778-5.688889 22.755556-11.377778 34.133334-22.755555 11.377778-11.377778 17.066667-17.066667 22.755555-28.444445 5.688889-11.377778 5.688889-22.755556 5.688889-39.822222v-614.4c0-11.377778 0-28.444444-5.688889-39.822222-5.688889-11.377778-11.377778-22.755556-22.755555-28.444445-11.377778-11.377778-22.755556-17.066667-34.133334-22.755555-11.377778-5.688889-22.755556-5.688889-39.822222-5.688889H210.488889zM284.444444 554.666667V708.266667c0 34.133333 28.444444 56.888889 56.888889 56.888889h62.577778c22.755556 45.511111 62.577778 73.955556 113.777778 73.955555s96.711111-28.444444 113.777778-73.955555h62.577777c34.133333 0 56.888889-28.444444 56.888889-56.888889V554.666667H284.444444z m426.666667 51.2V708.266667c0 5.688889-5.688889 11.377778-11.377778 11.377777H603.022222l-5.688889 17.066667c-11.377778 34.133333-45.511111 56.888889-79.644444 56.888889s-62.577778-22.755556-79.644445-56.888889l-5.688888-17.066667H341.333333c-5.688889 0-11.377778-5.688889-11.377777-11.377777v-108.088889h381.155555z m-261.688889-523.377778c-5.688889 0-11.377778 0-17.066666 5.688889l-159.288889 159.288889c-5.688889 5.688889-5.688889 11.377778-5.688889 17.066666 0 5.688889 0 11.377778 5.688889 17.066667 5.688889 5.688889 11.377778 5.688889 17.066666 5.688889s11.377778 0 17.066667-5.688889l130.844444-130.844444c5.688889-5.688889 11.377778-5.688889 11.377778-5.688889 5.688889 0 11.377778 0 11.377778 5.688889L756.622222 440.888889c5.688889 5.688889 11.377778 5.688889 17.066667 5.688889s11.377778 0 17.066667-5.688889c11.377778-11.377778 11.377778-22.755556 0-34.133333l-324.266667-318.577778c-5.688889-5.688889-11.377778-5.688889-17.066667-5.688889zM750.933333 560.355556V708.266667c0 28.444444-22.755556 51.2-51.2 51.2h-62.577777l-5.688889 5.688889c-22.755556 39.822222-62.577778 68.266667-113.777778 68.266666s-91.022222-28.444444-113.777778-68.266666v-5.688889H341.333333c-28.444444 0-51.2-22.755556-51.2-51.2v-147.911111h460.8z m-56.888889 210.488888c34.133333 0 62.577778-28.444444 62.577778-62.577777V554.666667l-5.688889-5.688889H284.444444L278.755556 554.666667V708.266667c0 34.133333 28.444444 62.577778 62.577777 62.577777h56.888889C420.977778 816.355556 466.488889 844.8 517.688889 844.8s96.711111-28.444444 119.466667-73.955556h56.888888z m0-45.511111c11.377778 0 17.066667-5.688889 17.066667-17.066666v-108.088889l-5.688889-5.688889H329.955556l-5.688889 11.377778V708.266667c0 11.377778 5.688889 17.066667 17.066666 17.066666h91.022223l5.688888 11.377778c11.377778 34.133333 45.511111 56.888889 85.333334 56.888889s68.266667-22.755556 85.333333-56.888889V725.333333h85.333333z m11.377778-113.777777V708.266667c0 5.688889-5.688889 5.688889-5.688889 5.688889H603.022222l-5.688889 5.688888-5.688889 17.066667c-11.377778 28.444444-39.822222 51.2-73.955555 51.2s-62.577778-22.755556-73.955556-51.2l-5.688889-17.066667-5.688888-5.688888H341.333333c-5.688889 0-5.688889-5.688889-5.688889-5.688889V611.555556h369.777778z m-256-523.377778c5.688889 0 11.377778 0 11.377778 5.688889l324.266667 318.577777c5.688889 5.688889 5.688889 17.066667 0 22.755556-5.688889 5.688889-5.688889 5.688889-11.377778 5.688889s-11.377778 0-11.377778-5.688889l-290.133333-290.133333c-5.688889-5.688889-11.377778-5.688889-17.066667-5.688889-5.688889 0-11.377778 0-17.066667 5.688889l-130.844444 130.844444c-5.688889 5.688889-5.688889 5.688889-11.377778 5.688889s-11.377778 0-11.377778-5.688889c-5.688889-5.688889-5.688889-5.688889-5.688888-11.377778s0-11.377778 5.688888-11.377777l159.288889-159.288889c0-5.688889 0-5.688889 5.688889-5.688889z m0-11.377778c-5.688889 0-17.066667 5.688889-22.755555 11.377778l-159.288889 159.288889c-5.688889 5.688889-11.377778 11.377778-11.377778 22.755555 0 5.688889 5.688889 17.066667 11.377778 22.755556 5.688889 5.688889 11.377778 11.377778 22.755555 11.377778s17.066667-5.688889 22.755556-11.377778L438.044444 156.444444s5.688889-5.688889 11.377778-5.688888 5.688889 0 11.377778 5.688888l290.133333 290.133334c5.688889 5.688889 11.377778 11.377778 22.755556 11.377778 5.688889 0 17.066667-5.688889 22.755555-11.377778 11.377778-11.377778 11.377778-28.444444 0-39.822222l-324.266666-318.577778c-5.688889-11.377778-17.066667-11.377778-22.755556-11.377778z"  horiz-adv-x="1024" />

    
    <glyph glyph-name="zhankai" unicode="&#58884;" d="M1536 725.333333H0V896h1536zM1109.333333 298.666667H0V469.333333h1109.333333zM1280 554.666667l256-170.666667-256-170.666667zM1536-128H0v170.666667h1536z"  horiz-adv-x="1536" />

    
    <glyph glyph-name="xiaoxi" unicode="&#58885;" d="M512-128C230.4-128 0 102.4 0 384S230.4 896 512 896s512-230.4 512-512-230.4-512-512-512z m204.8 547.84V476.16c0 87.04-76.8 174.08-174.08 184.32H486.4C389.12 655.36 307.2 563.2 307.2 476.16v-204.8L256 230.4v-51.2h512v46.08l-51.2 46.08V419.84zM512 76.8c46.08 0 81.92 20.48 102.4 51.2H414.72c20.48-30.72 56.32-51.2 97.28-51.2z m51.2 609.28V742.4H465.92v-56.32c15.36 5.12 35.84 5.12 51.2 5.12 10.24 0 30.72 0 46.08-5.12z"  horiz-adv-x="1024" />

    
    <glyph glyph-name="shouqi" unicode="&#58886;" d="M0 896h1536v-170.666667H0zM426.666667 469.333333h1109.333333v-170.666666H426.666667zM256 554.666667L0 384l256-170.666667zM0 42.666667h1536v-170.666667H0z"  horiz-adv-x="1536" />

    
    <glyph glyph-name="suifangguanliicon" unicode="&#58887;" d="M759.915789 340.884211c0-16.168421-16.168421-32.336842-32.336842-32.336843H296.421053c-16.168421 0-26.947368 16.168421-26.947369 32.336843s10.778947 32.336842 26.947369 32.336842h431.157894c16.168421 0 32.336842-10.778947 32.336842-32.336842m0-183.242106c0-16.168421-16.168421-32.336842-32.336842-32.336842H296.421053c-16.168421 0-26.947368 16.168421-26.947369 32.336842s10.778947 32.336842 26.947369 32.336842h431.157894c16.168421 0 32.336842-16.168421 32.336842-32.336842M377.263158 648.084211c5.389474 5.389474 10.778947 10.778947 21.557895 10.778947s16.168421-5.389474 21.557894-10.778947L495.831579 572.631579l167.073684 161.68421c5.389474 5.389474 10.778947 10.778947 21.557895 10.778948s16.168421-5.389474 21.557895-10.778948c5.389474-5.389474 10.778947-10.778947 10.778947-21.557894s-5.389474-16.168421-10.778947-21.557895L517.389474 513.347368c-5.389474-10.778947-10.778947-10.778947-21.557895-10.778947s-16.168421 0-21.557895 10.778947L377.263158 604.968421c-5.389474 5.389474-10.778947 16.168421-10.778947 21.557895s5.389474 16.168421 10.778947 21.557895M883.873684 896H145.515789C107.789474 896 80.842105 869.052632 80.842105 831.326316v-738.357895c0-102.4 80.842105-183.242105 183.242106-183.242105h490.442105c102.4 0 183.242105 80.842105 183.242105 183.242105V831.326316c5.389474 37.726316-21.557895 64.673684-53.894737 64.673684"  horiz-adv-x="1024" />

    
    <glyph glyph-name="huanzheguanliicon" unicode="&#58888;" d="M584 738c-6-6-18-6-24 0C308 984 32 840 32 552c0-312 540-594 540-594s540 306 540 594C1112 840 836 984 584 738z m96-324H602v-78c0-18-12-30-30-30s-36 6-36 24V414H458c-18 0-30 12-30 30s12 30 30 30h78V558c0 18 12 30 30 30s30-12 30-30v-78h78c18 0 30-12 30-30 12-24-6-36-24-36z"  horiz-adv-x="1152" />

    
    <glyph glyph-name="suifangmobanicon" unicode="&#58889;" d="M118.25 834h787.5c33.75 0 56.25-22.5 56.25-50.625v-151.875c0-28.125-22.5-50.625-56.25-50.625H118.25c-33.75 5.625-56.25 28.125-56.25 50.625V783.375C62 811.5 84.5 834 118.25 834zM112.625 485.25h157.5c28.125 0 50.625-22.5 50.625-56.25V-9.75c0-28.125-22.5-56.25-50.625-56.25H112.625c-28.125 0-50.625 22.5-50.625 56.25V429c0 28.125 22.5 56.25 50.625 56.25z m382.5 0h416.25c28.125 0 50.625-22.5 50.625-56.25V-9.75c0-28.125-22.5-56.25-50.625-56.25H495.125c-28.125 0-50.625 22.5-50.625 56.25V429c0 28.125 22.5 56.25 50.625 56.25z"  horiz-adv-x="1024" />

    
    <glyph glyph-name="dengpao" unicode="&#58890;" d="M325.270588 245.458824C222.870588 305.694118 150.588235 420.141176 150.588235 546.635294 150.588235 739.388235 313.223529 896 512 896s361.411765-156.611765 361.411765-349.364706c0-126.494118-72.282353-240.941176-174.682353-301.17647-6.023529-30.117647-18.070588-60.235294-42.164706-84.329412H367.435294c-24.094118 24.094118-36.141176 54.211765-42.164706 84.329412z m445.741177 265.035294C771.011765 661.082353 656.564706 775.529412 512 781.552941c-24.094118 0-36.141176-12.047059-36.141176-36.141176 0-6.023529 12.047059-18.070588 36.141176-18.070589 108.423529 0 204.8-90.352941 204.8-216.847058 0-6.023529 12.047059-18.070588 36.141176-18.070589 6.023529 6.023529 18.070588 12.047059 18.070589 18.070589z m-415.62353-433.694118c0 24.094118 18.070588 36.141176 36.141177 36.141176h240.941176c18.070588 0 36.141176-12.047059 36.141177-36.141176s-18.070588-30.117647-36.141177-30.117647H391.529412c-6.023529 0-18.070588 6.023529-24.094118 12.047059-6.023529 6.023529-12.047059 12.047059-12.047059 18.070588z m295.152941-78.305882c-24.094118-54.211765-78.305882-84.329412-138.541176-84.329412-60.235294 0-108.423529 30.117647-138.541176 84.329412h277.082352z"  horiz-adv-x="1024" />

    
    <glyph glyph-name="chachaicon" unicode="&#58891;" d="M583.68 384L1003.52 803.84c20.48 20.48 20.48 51.2 0 71.68-20.48 20.48-51.2 20.48-71.68 0L512 455.68 92.16 875.52C71.68 896 40.96 896 20.48 875.52 0 855.04 0 824.32 20.48 803.84L440.32 384 20.48-35.84c-20.48-20.48-20.48-51.2 0-71.68 10.24-10.24 20.48-10.24 40.96-10.24 10.24 0 30.72 0 40.96 10.24l419.84 419.84 419.84-430.08c10.24-10.24 20.48-10.24 40.96-10.24 10.24 0 30.72 0 40.96 10.24 20.48 20.48 20.48 51.2 0 71.68L583.68 384z"  horiz-adv-x="1039" />

    
    <glyph glyph-name="fangdajingicon" unicode="&#58892;" d="M422.4 896c57.6 0 108.8-12.8 160-32s96-51.2 134.4-89.6c38.4-38.4 64-83.2 89.6-134.4 19.2-51.2 32-108.8 32-160s-6.4-96-25.6-140.8c-12.8-44.8-38.4-83.2-70.4-121.6l262.4-262.4c6.4-6.4 12.8-19.2 12.8-32s-6.4-25.6-12.8-32c-6.4-6.4-19.2-12.8-32-12.8s-25.6 6.4-32 12.8l-262.4 262.4c-38.4-32-76.8-51.2-121.6-70.4-44.8-12.8-89.6-25.6-140.8-25.6-57.6 0-108.8 12.8-160 32s-96 51.2-134.4 89.6c-38.4 38.4-64 83.2-89.6 134.4-19.2 51.2-32 108.8-32 160 0 57.6 12.8 108.8 32 160S83.2 729.6 121.6 768c38.4 38.4 83.2 64 134.4 89.6C313.6 883.2 371.2 896 422.4 896z m0-96c-44.8 0-83.2-6.4-128-25.6S217.6 736 192 704c-32-32-51.2-64-70.4-102.4-19.2-38.4-25.6-83.2-25.6-128s6.4-83.2 25.6-128c19.2-38.4 38.4-76.8 70.4-102.4 32-32 64-51.2 102.4-70.4 38.4-19.2 83.2-25.6 128-25.6s83.2 6.4 128 25.6c38.4 19.2 76.8 38.4 102.4 70.4 32 32 51.2 64 70.4 102.4 19.2 38.4 25.6 83.2 25.6 128s-6.4 83.2-25.6 128c-19.2 38.4-38.4 76.8-70.4 102.4-32 32-64 51.2-102.4 70.4-38.4 19.2-83.2 25.6-128 25.6z"  horiz-adv-x="1030" />

    
    <glyph glyph-name="jinggaotanhaoicon" unicode="&#58893;" d="M512-128C230.4-128 0 102.4 0 384S230.4 896 512 896s512-230.4 512-512-230.4-512-512-512z m0 962.56c-250.88 0-450.56-199.68-450.56-450.56s199.68-450.56 450.56-450.56 450.56 199.68 450.56 450.56-199.68 450.56-450.56 450.56zM512 250.88c-20.48 0-35.84 15.36-35.84 30.72V624.64c0 20.48 15.36 30.72 35.84 30.72s35.84-15.36 35.84-30.72v-337.92c0-20.48-15.36-35.84-35.84-35.84zM512 112.64c-20.48 0-35.84 15.36-35.84 35.84 0 20.48 15.36 35.84 35.84 35.84s35.84-15.36 35.84-35.84c0-25.6-15.36-35.84-35.84-35.84z"  horiz-adv-x="1024" />

    
    <glyph glyph-name="shanchuicon" unicode="&#58894;" d="M999.905882 685.176471h-252.988235c-6.023529 0-12.047059 0-18.070588 6.023529l-96.376471 96.376471h-180.705882L355.388235 691.2s-12.047059-6.023529-18.070588-6.023529H84.329412c-12.047059 0-24.094118 12.047059-24.094118 24.094117s12.047059 24.094118 24.094118 24.094118h240.941176L421.647059 829.741176c6.023529 6.023529 12.047059 6.023529 18.070588 6.02353h204.8c6.023529 0 12.047059 0 18.070588-6.02353l96.376471-90.352941h240.941176c12.047059 0 24.094118-12.047059 24.094118-24.094117 0-18.070588-12.047059-30.117647-24.094118-30.117647z m-180.705882-771.011765H265.035294c-54.211765 0-102.4 42.164706-102.4 102.4V564.705882c0 12.047059 12.047059 24.094118 24.094118 24.094118s24.094118-12.047059 24.094117-24.094118v-548.141176c0-30.117647 24.094118-48.188235 48.188236-48.188235h560.188235c30.117647 0 48.188235 24.094118 48.188235 48.188235V564.705882c0 12.047059 12.047059 24.094118 24.094118 24.094118s24.094118-12.047059 24.094118-24.094118v-548.141176c6.023529-54.211765-36.141176-102.4-96.376471-102.4z m-403.576471 150.588235c-12.047059 0-24.094118 12.047059-24.094117 24.094118V564.705882c0 12.047059 12.047059 24.094118 24.094117 24.094118s24.094118-12.047059 24.094118-24.094118v-469.835294c0-18.070588-12.047059-30.117647-24.094118-30.117647z m252.988236 0c-12.047059 0-24.094118 12.047059-24.094118 24.094118V564.705882c0 12.047059 12.047059 24.094118 24.094118 24.094118s24.094118-12.047059 24.094117-24.094118v-469.835294c0-18.070588-12.047059-30.117647-24.094117-30.117647zM999.905882 703.247059c6.023529 0 12.047059 6.023529 12.047059 12.047059s-6.023529 12.047059-12.047059 12.047058h-240.941176l-12.047059 6.02353-96.376471 84.329412-6.023529 6.023529H439.717647h-6.023529L337.317647 727.341176l-6.023529-6.023529h-240.941177c-12.047059 0-18.070588-6.023529-18.070588-12.047059s6.023529-12.047059 12.047059-12.047059h259.011764l96.376471 90.352942 12.047059 6.023529h180.705882l12.047059-6.023529 96.376471-90.352942h259.011764z m-240.941176 48.188235h234.917647c24.094118 0 42.164706-18.070588 42.164706-42.164706 0-24.094118-18.070588-42.164706-42.164706-42.164706h-252.988235c-12.047059 0-18.070588 6.023529-30.117647 12.047059l-84.329412 90.352941H457.788235L367.435294 685.176471c-6.023529-12.047059-18.070588-12.047059-30.117647-12.047059H84.329412C60.235294 673.129412 42.164706 691.2 42.164706 715.294118c0 24.094118 18.070588 42.164706 42.164706 42.164706h234.917647L409.6 847.811765c12.047059 0 18.070588 6.023529 30.117647 6.023529h204.8c12.047059 0 18.070588-6.023529 30.117647-12.047059l84.329412-90.352941z m60.235294-819.2c48.188235 0 84.329412 36.141176 84.329412 84.329412V564.705882c0 6.023529-6.023529 12.047059-12.047059 12.047059s-12.047059-6.023529-12.047059-12.047059v-548.141176c0-36.141176-30.117647-66.258824-66.258823-66.258824H265.035294c-36.141176 0-66.258824 30.117647-66.258823 66.258824V564.705882c0 6.023529-6.023529 12.047059-12.047059 12.047059l-12.047059-12.047059v-548.141176c0-48.188235 36.141176-84.329412 84.329412-84.329412h560.188235z m0-30.117647H265.035294c-66.258824 0-114.447059 54.211765-114.447059 114.447059V564.705882c0 24.094118 18.070588 42.164706 42.164706 42.164706 24.094118 0 42.164706-18.070588 42.164706-42.164706v-548.141176c0-18.070588 18.070588-36.141176 36.141177-36.141177h560.188235c18.070588 0 36.141176 18.070588 36.141176 36.141177V564.705882c0 24.094118 18.070588 42.164706 42.164706 42.164706 24.094118 0 42.164706-18.070588 42.164706-42.164706v-548.141176c-12.047059-66.258824-66.258824-114.447059-132.517647-114.447059z m-403.576471 180.705882c6.023529 0 12.047059 6.023529 12.047059 12.047059V564.705882c0 6.023529-6.023529 12.047059-12.047059 12.047059s-12.047059-6.023529-12.047058-12.047059v-469.835294c0-12.047059 6.023529-12.047059 12.047058-12.047059z m0-30.117647c-24.094118 0-42.164706 18.070588-42.164705 42.164706V564.705882c0 24.094118 18.070588 42.164706 42.164705 42.164706 24.094118 0 42.164706-18.070588 42.164706-42.164706v-469.835294c0-24.094118-18.070588-42.164706-42.164706-42.164706z m252.988236 30.117647c6.023529 0 12.047059 6.023529 12.047059 12.047059V564.705882c0 6.023529-6.023529 12.047059-12.047059 12.047059s-12.047059-6.023529-12.047059-12.047059v-469.835294c0-12.047059 6.023529-12.047059 12.047059-12.047059z m0-30.117647c-24.094118 0-42.164706 18.070588-42.164706 42.164706V564.705882c0 24.094118 18.070588 42.164706 42.164706 42.164706 24.094118 0 42.164706-18.070588 42.164706-42.164706v-469.835294c0-24.094118-18.070588-42.164706-42.164706-42.164706z"  horiz-adv-x="1084" />

    
    <glyph glyph-name="fuzhiicon" unicode="&#58895;" d="M614.4 133.688889h-284.444444c-39.822222 0-73.955556 34.133333-73.955556 73.955555V770.844444c5.688889 34.133333 34.133333 68.266667 73.955556 68.266667h563.2c39.822222 0 73.955556-34.133333 73.955555-73.955555v-563.2c0-34.133333-22.755556-62.577778-56.888889-73.955556h-11.377778c-96.711111 5.688889-193.422222 5.688889-284.444444 5.688889z m0 56.888889h278.755556c11.377778 0 17.066667 5.688889 17.066666 17.066666v22.755556 500.622222 22.755556c0 17.066667-5.688889 22.755556-22.755555 22.755555H358.4c-5.688889 5.688889-17.066667 5.688889-22.755556 0-11.377778 0-17.066667-5.688889-17.066666-17.066666V207.644444c0-17.066667 5.688889-22.755556 22.755555-22.755555h17.066667c85.333333 5.688889 170.666667 5.688889 256 5.688889zM614.4 139.377778H910.222222c28.444444 5.688889 51.2 34.133333 51.2 62.577778v102.4 45.511111 113.777777V554.666667 765.155556c0 34.133333-28.444444 62.577778-62.577778 62.577777h-568.888888c-34.133333 0-62.577778-28.444444-62.577778-62.577777v-563.2c0-34.133333 28.444444-62.577778 62.577778-62.577778h284.444444z m0-17.066667h-284.444444c-45.511111 0-79.644444 34.133333-79.644445 79.644445V765.155556c0 45.511111 34.133333 79.644444 79.644445 79.644444h563.2c45.511111 0 79.644444-34.133333 79.644444-79.644444V201.955556c0-39.822222-28.444444-73.955556-68.266667-79.644445h-290.133333z m0 56.888889H341.333333c-22.755556 0-28.444444 11.377778-28.444444 34.133333v22.755556 500.622222 28.444445c0 17.066667 11.377778 22.755556 22.755555 22.755555H887.466667c17.066667-5.688889 28.444444-11.377778 28.444444-28.444444V207.644444c0-17.066667-11.377778-22.755556-28.444444-28.444444H614.4z m0 17.066667h267.377778c5.688889 0 11.377778 5.688889 11.377778 11.377777v22.755556 500.622222 17.066667c0 11.377778-5.688889 11.377778-11.377778 17.066667H335.644444c-5.688889 0-11.377778-5.688889-11.377777-11.377778V213.333333c0-11.377778 5.688889-17.066667 17.066666-17.066666h273.066667zM409.6-71.111111h-284.444444c-34.133333 0-68.266667 34.133333-68.266667 73.955555V566.044444c0 39.822222 34.133333 73.955556 73.955555 73.955556h68.266667c17.066667-5.688889 28.444444-17.066667 28.444445-34.133333s-11.377778-28.444444-28.444445-28.444445h-56.888889c-17.066667 0-22.755556-5.688889-28.444444-22.755555V8.533333c0-11.377778 5.688889-17.066667 22.755555-17.066666H682.666667c17.066667 0 22.755556 5.688889 22.755555 22.755555v51.2c0 17.066667 11.377778 34.133333 28.444445 28.444445 17.066667 0 28.444444-17.066667 28.444444-34.133334v-56.888889c0-28.444444-17.066667-56.888889-45.511111-68.266666-5.688889 0-17.066667-5.688889-22.755556-5.688889h-284.444444zM466.488889-59.733333h221.866667c5.688889 0 11.377778 0 22.755555 5.688889 22.755556 5.688889 39.822222 34.133333 39.822222 62.577777v17.066667 39.822222c0 11.377778-5.688889 22.755556-22.755555 22.755556-11.377778 0-22.755556-11.377778-22.755556-22.755556V14.222222c0-17.066667-11.377778-28.444444-28.444444-34.133333H125.155556c-17.066667 0-22.755556 11.377778-28.444445 28.444444v28.444445 500.622222 22.755556c0 22.755556 11.377778 28.444444 34.133333 34.133333h56.888889c11.377778 0 22.755556 11.377778 22.755556 22.755555s-11.377778 22.755556-22.755556 22.755556H119.466667C85.333333 640 56.888889 611.555556 56.888889 577.422222v-563.2c0-34.133333 28.444444-62.577778 62.577778-62.577778h284.444444c34.133333-11.377778 34.133333-11.377778 62.577778-11.377777z m-56.888889-17.066667h-284.444444c-45.511111 0-79.644444 34.133333-79.644445 79.644444V566.044444c0 45.511111 34.133333 79.644444 79.644445 79.644445h68.266666c22.755556 0 39.822222-17.066667 39.822222-39.822222 0-22.755556-17.066667-39.822222-39.822222-39.822223h-56.888889c-5.688889 0-11.377778 0-11.377777-11.377777V8.533333c0-5.688889 5.688889-11.377778 11.377777-11.377777H682.666667c11.377778 0 17.066667 5.688889 17.066666 17.066666v34.133334 5.688888 5.688889c0 22.755556 17.066667 39.822222 39.822223 39.822223 22.755556 0 39.822222-17.066667 34.133333-39.822223v-56.888889c0-34.133333-22.755556-62.577778-51.2-73.955555-5.688889 0-17.066667-5.688889-28.444445-5.688889h-284.444444zM580.266667 452.266667H443.733333c-17.066667 0-28.444444 11.377778-34.133333 28.444444 0 17.066667 5.688889 34.133333 22.755556 34.133333h147.911111v5.688889 130.844445c0 17.066667 11.377778 34.133333 34.133333 34.133333 17.066667 0 34.133333-17.066667 34.133333-34.133333v-136.533334h136.533334c17.066667 0 28.444444-11.377778 34.133333-28.444444 0-17.066667-5.688889-34.133333-22.755556-34.133333h-142.222222-5.688889v-136.533334c0-11.377778-5.688889-22.755556-17.066666-28.444444-17.066667-5.688889-28.444444-5.688889-39.822223 5.688889-5.688889 5.688889-11.377778 11.377778-11.377777 22.755555V446.577778v5.688889zM580.266667 457.955556l11.377777-5.688889v-136.533334c0-5.688889 0-11.377778 5.688889-17.066666 5.688889-5.688889 17.066667-11.377778 28.444445-5.688889s17.066667 11.377778 17.066666 22.755555V406.755556v45.511111l5.688889 11.377777h142.222223c11.377778 5.688889 17.066667 17.066667 17.066666 28.444445s-11.377778 22.755556-22.755555 22.755555h-136.533334l-5.688889 5.688889v5.688889 39.822222 28.444445 62.577778c0 17.066667-11.377778 28.444444-22.755555 28.444444-22.755556-5.688889-34.133333-17.066667-34.133333-34.133333V520.533333l-5.688889-11.377777H438.044444c-11.377778-5.688889-22.755556-17.066667-17.066666-28.444445 0-11.377778 11.377778-22.755556 22.755555-22.755555H580.266667z m-45.511111-17.066667H443.733333c-22.755556 0-39.822222 17.066667-39.822222 34.133333 0 22.755556 11.377778 39.822222 28.444445 45.511111H568.888889V554.666667v28.444444 62.577778c0 22.755556 17.066667 45.511111 39.822222 45.511111 22.755556 0 39.822222-17.066667 39.822222-45.511111v-125.155556h125.155556c22.755556 0 39.822222-17.066667 39.822222-34.133333 5.688889-22.755556-11.377778-39.822222-28.444444-45.511111h-136.533334v-125.155556c0-17.066667-11.377778-34.133333-22.755555-39.822222-11.377778-5.688889-28.444444 0-39.822222 11.377778-11.377778 5.688889-17.066667 17.066667-17.066667 28.444444V384v34.133333V440.888889h-34.133333z"  horiz-adv-x="1024" />

    
    <glyph glyph-name="tianjiaicon" unicode="&#58896;" d="M320 320h128v-128c0-38.4 25.6-64 64-64s64 25.6 64 64V320h128c38.4 0 64 25.6 64 64s-25.6 64-64 64H576V576c0 38.4-25.6 64-64 64s-64-25.6-64-64v-128H320c-38.4 0-64-25.6-64-64s25.6-64 64-64zM0 896v-1024h1024V896H0z m960-960H64V832h896v-896z"  horiz-adv-x="1024" />

    
    <glyph glyph-name="information" unicode="&#58898;" d="M983.04 581.973333c-27.306667 61.44-61.44 116.053333-109.226667 163.84S771.413333 827.733333 709.973333 855.04C648.533333 882.346667 580.266667 896 512 896s-136.533333-13.653333-197.973333-40.96c-61.44-27.306667-116.053333-61.44-163.84-109.226667S68.266667 643.413333 40.96 581.973333C13.653333 520.533333 0 452.266667 0 384s13.653333-136.533333 40.96-197.973333c27.306667-61.44 61.44-116.053333 109.226667-163.84 47.786667-47.786667 102.4-81.92 163.84-109.226667 61.44-27.306667 129.706667-40.96 197.973333-40.96s136.533333 13.653333 197.973333 40.96c61.44 27.306667 116.053333 61.44 163.84 109.226667 47.786667 47.786667 81.92 102.4 109.226667 163.84 27.306667 61.44 40.96 129.706667 40.96 197.973333s-13.653333 136.533333-40.96 197.973333z m-423.253333-539.306666c-13.653333-13.653333-27.306667-20.48-47.786667-20.48-20.48 0-34.133333 6.826667-47.786667 20.48-13.653333 13.653333-20.48 34.133333-20.48 54.613333V459.093333c0 27.306667 6.826667 40.96 20.48 54.613334 13.653333 20.48 27.306667 20.48 47.786667 20.48 20.48 0 34.133333-6.826667 47.786667-20.48 13.653333-6.826667 13.653333-27.306667 13.653333-47.786667v-368.64c0-20.48 0-40.96-13.653333-54.613333z m-47.786667 552.96c-13.653333 0-34.133333 6.826667-40.96 13.653333-13.653333 13.653333-20.48 27.306667-20.48 47.786667 0 20.48 6.826667 34.133333 20.48 40.96 13.653333 13.653333 27.306667 20.48 47.786667 20.48 13.653333 0 34.133333-6.826667 40.96-13.653334 6.826667-13.653333 13.653333-27.306667 13.653333-47.786666 0-20.48-6.826667-34.133333-20.48-47.786667-6.826667-6.826667-20.48-13.653333-40.96-13.653333z"  horiz-adv-x="1024" />

    
    <glyph glyph-name="baocunchenggong" unicode="&#58899;" d="M512-128C230.4-128 0 102.4 0 384c0 138.24 56.32 266.24 148.48 363.52C245.76 844.8 373.76 896 512 896c138.24 0 266.24-56.32 363.52-148.48C972.8 650.24 1024 517.12 1024 384c0-138.24-56.32-266.24-148.48-363.52C778.24-76.8 650.24-128 512-128z m0 952.32c-117.76 0-225.28-46.08-307.2-128-81.92-81.92-128-194.56-128-307.2 0-240.64 194.56-440.32 435.2-440.32 117.76 0 225.28 46.08 307.2 128 81.92 81.92 128 194.56 128 307.2 0 117.76-46.08 225.28-128 312.32-76.8 81.92-189.44 128-307.2 128zM455.68 168.96c-10.24 0-20.48 5.12-25.6 10.24-20.48 15.36-20.48 35.84-5.12 51.2l327.68 337.92c15.36 15.36 40.96 15.36 56.32 5.12 15.36-15.36 15.36-35.84 5.12-51.2l-327.68-337.92c-10.24-10.24-20.48-15.36-30.72-15.36zM455.68 168.96c-10.24 0-20.48 5.12-25.6 10.24l-179.2 184.32c-15.36 15.36-15.36 35.84 0 51.2 15.36 15.36 40.96 15.36 51.2 0L481.28 230.4c15.36-15.36 15.36-35.84 0-51.2-10.24-5.12-20.48-10.24-25.6-10.24z"  horiz-adv-x="1024" />

    
    <glyph glyph-name="danxuanicon" unicode="&#58900;" d="M519.314286 896h-14.628572C226.742857 896 0 669.257143 0 384s226.742857-512 504.685714-512h14.628572c277.942857 0 504.685714 226.742857 504.685714 512s-226.742857 512-504.685714 512z m0-950.857143h-14.628572C270.628571-54.857143 73.142857 142.628571 73.142857 384s197.485714 438.857143 431.542857 438.857143h14.628572C753.371429 822.857143 950.857143 625.371429 950.857143 384s-197.485714-438.857143-431.542857-438.857143zM512 603.428571C387.657143 603.428571 292.571429 508.342857 292.571429 384s95.085714-219.428571 219.428571-219.428571c117.028571 0 219.428571 95.085714 219.428571 219.428571S636.342857 603.428571 512 603.428571z"  horiz-adv-x="1024" />

    
    <glyph glyph-name="danhangicon" unicode="&#58901;" d="M950.857143 896H73.142857C29.257143 896 0 866.742857 0 822.857143v-877.714286c0-43.885714 29.257143-73.142857 73.142857-73.142857h877.714286c43.885714 0 73.142857 29.257143 73.142857 73.142857V822.857143c0 43.885714-29.257143 73.142857-73.142857 73.142857z m0-914.285714c0-21.942857-14.628571-36.571429-36.571429-36.571429h-804.571428c-21.942857 0-36.571429 14.628571-36.571429 36.571429v804.571428c0 21.942857 14.628571 36.571429 36.571429 36.571429h804.571428c21.942857 0 36.571429-14.628571 36.571429-36.571429v-804.571428zM292.571429 603.428571h438.857142c43.885714 0 73.142857-29.257143 73.142858-73.142857s-29.257143-73.142857-73.142858-73.142857H292.571429c-43.885714 0-73.142857 29.257143-73.142858 73.142857s29.257143 73.142857 73.142858 73.142857zM292.571429 310.857143h438.857142c43.885714 0 73.142857-29.257143 73.142858-73.142857s-29.257143-73.142857-73.142858-73.142857H292.571429c-43.885714 0-73.142857 29.257143-73.142858 73.142857s29.257143 73.142857 73.142858 73.142857z"  horiz-adv-x="1024" />

    
    <glyph glyph-name="bi" unicode="&#58902;" d="M315.733333 0L128 187.733333l512 512 187.733333-187.733333-512-512zM844.8 819.2l102.4-102.4c25.6-25.6 25.6-68.266667 0-93.866667L844.8 520.533333 648.533333 716.8 750.933333 819.2c25.6 25.6 68.266667 25.6 93.866667 0zM119.466667 170.666667l187.733333-187.733334-256-68.266666 68.266667 256z"  horiz-adv-x="1024" />

    
    <glyph glyph-name="baocunzhong" unicode="&#58903;" d="M512-128C230.4-128 0 102.4 0 384c0 138.24 56.32 266.24 148.48 363.52C245.76 844.8 373.76 896 512 896c138.24 0 266.24-56.32 363.52-148.48C972.8 650.24 1024 517.12 1024 384c0-138.24-56.32-266.24-148.48-363.52C778.24-76.8 650.24-128 512-128z m0 952.32c-117.76 0-225.28-46.08-307.2-128-81.92-81.92-128-194.56-128-307.2 0-240.64 194.56-440.32 435.2-440.32 117.76 0 225.28 46.08 307.2 128 81.92 81.92 128 194.56 128 307.2 0 117.76-46.08 225.28-128 312.32-76.8 81.92-189.44 128-307.2 128zM256 358.4m-76.8 0a76.8 76.8 0 1 1 153.6 0 76.8 76.8 0 1 1-153.6 0ZM512 358.4m-76.8 0a76.8 76.8 0 1 1 153.6 0 76.8 76.8 0 1 1-153.6 0ZM768 358.4m-76.8 0a76.8 76.8 0 1 1 153.6 0 76.8 76.8 0 1 1-153.6 0Z"  horiz-adv-x="1024" />

    
    <glyph glyph-name="hongselajixiang" unicode="&#58904;" d="M981.333333 776.533333H802.133333V844.8c0 25.6-25.6 51.2-51.2 51.2H273.066667c-34.133333 0-51.2-25.6-51.2-51.2v-59.733333H34.133333c-17.066667-8.533333-34.133333-25.6-34.133333-42.666667s17.066667-34.133333 34.133333-34.133333h947.2c17.066667 0 34.133333 17.066667 34.133334 34.133333 8.533333 17.066667-8.533333 34.133333-34.133334 34.133333zM836.266667 622.933333H179.2c-8.533333 0-17.066667 0-25.6-8.533333 0-8.533333-8.533333-17.066667-8.533333-25.6v-605.866667c0-59.733333 51.2-110.933333 110.933333-110.933333h512c59.733333 0 110.933333 51.2 110.933333 110.933333V588.8c0 17.066667-17.066667 34.133333-42.666666 34.133333zM418.133333 42.666667c0-17.066667-17.066667-34.133333-34.133333-34.133334-25.6-8.533333-42.666667 8.533333-42.666667 34.133334V435.2c0 17.066667 17.066667 34.133333 34.133334 34.133333s34.133333-17.066667 34.133333-34.133333V42.666667zM682.666667 42.666667c0-17.066667-17.066667-34.133333-34.133334-34.133334s-34.133333 17.066667-34.133333 34.133334V435.2c-8.533333 17.066667 8.533333 34.133333 25.6 34.133333 25.6 0 42.666667-17.066667 42.666667-34.133333V42.666667z"  horiz-adv-x="1024" />

    
    <glyph glyph-name="lansezantingshiyong" unicode="&#58905;" d="M156.553846-72.861538V856.615385C156.553846 888.123077 188.061538 903.876923 211.692308 888.123077L849.723077 423.384615c23.630769-15.753846 23.630769-47.261538 0-63.015384L211.692308-104.369231c-23.630769-15.753846-55.138462 0-55.138462 31.507693z"  horiz-adv-x="1024" />

    
    <glyph glyph-name="duoxuan-icon" unicode="&#58906;" d="M950.857143 896H73.142857C29.257143 896 0 866.742857 0 822.857143v-877.714286c0-43.885714 29.257143-73.142857 73.142857-73.142857h877.714286c43.885714 0 73.142857 29.257143 73.142857 73.142857V822.857143c0 43.885714-29.257143 73.142857-73.142857 73.142857z m0-914.285714c0-21.942857-14.628571-36.571429-36.571429-36.571429h-804.571428c-21.942857 0-36.571429 14.628571-36.571429 36.571429v804.571428c0 21.942857 14.628571 36.571429 36.571429 36.571429h804.571428c21.942857 0 36.571429-14.628571 36.571429-36.571429v-804.571428zM804.571429 552.228571s-95.085714-29.257143-204.8-160.914285C497.371429 274.285714 475.428571 230.4 438.857143 164.571429c-7.314286 7.314286-65.828571 117.028571-219.428572 204.8l80.457143 80.457142s73.142857-51.2 124.342857-146.285714c0 0 131.657143 204.8 380.342858 299.885714v-51.2z"  horiz-adv-x="1024" />

    
    <glyph glyph-name="guaduan_icon" unicode="&#58907;" d="M352.52459-111.213115h-67.147541c-67.147541 0-134.295082 33.57377-167.868852 100.721312-50.360656 33.57377-67.147541 83.934426-83.934427 134.295082-16.786885 33.57377-16.786885 83.934426-33.57377 134.295082v33.57377c0 16.786885 16.786885 50.360656 16.786885 67.147541 16.786885 50.360656 67.147541 83.934426 100.721312 117.508197 50.360656 50.360656 117.508197 83.934426 184.655737 117.508197 100.721311 67.147541 218.229508 117.508197 335.737705 151.081967 167.868852 50.360656 335.737705 83.934426 503.606558 100.721311C1275.803279 879.213115 1410.098361 896 1544.393443 896h268.590164c117.508197 0 218.229508-16.786885 335.737704-16.786885 134.295082-16.786885 268.590164-33.57377 402.885246-67.147541 184.655738-50.360656 369.311475-100.721311 520.393443-218.229508 67.147541-50.360656 117.508197-83.934426 184.655738-134.295082 33.57377-33.57377 67.147541-83.934426 83.934426-134.295082 0-16.786885 0-33.57377 16.786885-33.573771v-50.360656c-16.786885-33.57377-16.786885-67.147541-33.57377-100.721311l-50.360656-151.081967c-33.57377-50.360656-67.147541-83.934426-134.295082-100.721312-16.786885 0-50.360656 0-67.147541-16.786885H3021.639344V-111.213115h-83.934426c-151.081967 16.786885-302.163934 50.360656-436.459016 100.721312-67.147541 16.786885-117.508197 67.147541-134.295082 151.081967-16.786885 50.360656-16.786885 83.934426-16.786886 117.508197 0 67.147541-33.57377 117.508197-100.721311 151.081967-16.786885 16.786885-50.360656 16.786885-67.147541 33.57377-83.934426 16.786885-167.868852 33.57377-251.803279 33.573771H1477.245902c-83.934426 0-167.868852 0-251.803279-16.786885-33.57377-16.786885-83.934426-33.57377-134.295082-50.360656-50.360656-33.57377-67.147541-67.147541-83.934426-117.508197v-83.934426c-16.786885-100.721311-50.360656-167.868852-151.081967-201.442623-134.295082-67.147541-285.377049-83.934426-436.459017-117.508197h-67.147541z"  horiz-adv-x="3413" />

    
    <glyph glyph-name="jinggaochacha" unicode="&#58908;" d="M512-128c-285.257143 0-512 226.742857-512 512s226.742857 512 512 512 512-226.742857 512-512-226.742857-512-512-512z m234.057143 753.371429c-21.942857 21.942857-65.828571 21.942857-87.771429 0L512 471.771429l-153.6 146.285714c-21.942857 21.942857-65.828571 21.942857-87.771429 0-21.942857-21.942857-21.942857-65.828571 0-87.771429l153.6-146.285714-153.6-153.6c-21.942857-21.942857-21.942857-65.828571 0-87.771429 21.942857-21.942857 65.828571-21.942857 87.771429 0L512 296.228571l153.6-153.6c21.942857-21.942857 65.828571-21.942857 87.771429 0 21.942857 21.942857 21.942857 65.828571 0 87.771429L599.771429 384l153.6 153.6c21.942857 21.942857 21.942857 58.514286-7.314286 87.771429z"  horiz-adv-x="1024" />

    
    <glyph glyph-name="querenbodaicon" unicode="&#58909;" d="M1021.379432-11.270922c-21.886702-80.251241-167.79805-138.61578-321.004964-102.137943-153.206915 36.477837-313.709397 124.024645-437.734043 248.04929C138.61578 258.665071 51.068972 419.167553 14.591135 572.374468S36.477837 871.49273 116.729078 893.379432C138.61578 900.675 218.867021 907.970567 342.891667 689.103546c36.477837-65.660106 7.295567-58.364539-72.955674-189.684752-36.477837-58.364539 21.886702-138.61578 21.886702-138.61578s43.773404-65.660106 87.546808-109.433511S488.803014 163.822695 488.803014 163.822695s80.251241-58.364539 138.61578-21.886702c124.024645 80.251241 124.024645 102.137943 189.684752 72.955674 218.867021-124.024645 204.275886-204.275886 204.275886-226.162589z"  horiz-adv-x="1024" />

    
    <glyph glyph-name="sanjiaoxingjinggao" unicode="&#58910;" d="M1151.544484 3.188612L655.94306 841.338078c-43.729537 72.882562-109.323843 72.882562-145.765124 0L21.864769 3.188612c-43.729537-72.882562-7.288256-123.900356 72.882562-123.900356h976.626334c87.459075 0 116.6121 58.30605 80.170819 123.900356zM583.060498 746.590747l451.871886-757.978647H131.188612L583.060498 746.590747zM546.619217 506.078292h80.170819V236.412811H546.619217V506.078292z m0-349.836299h80.170819v-116.6121H546.619217v116.6121z"  horiz-adv-x="1171" />

    
    <glyph glyph-name="shanchuwenzichacha" unicode="&#58911;" d="M512 896C226.742857 896 0 669.257143 0 384s226.742857-512 512-512 512 226.742857 512 512-226.742857 512-512 512z m204.8-636.342857c21.942857-14.628571 29.257143-36.571429 29.257143-58.514286-7.314286-21.942857-21.942857-43.885714-43.885714-43.885714-21.942857-7.314286-43.885714 7.314286-58.514286 29.257143L512 310.857143 380.342857 179.2c-14.628571-21.942857-36.571429-29.257143-58.514286-29.257143-21.942857 7.314286-43.885714 21.942857-43.885714 43.885714-7.314286 21.942857 7.314286 43.885714 29.257143 58.514286L438.857143 384 307.2 515.657143c-21.942857 14.628571-29.257143 36.571429-29.257143 58.514286 7.314286 21.942857 21.942857 43.885714 43.885714 43.885714 21.942857 7.314286 43.885714-7.314286 58.514286-29.257143L512 457.142857l131.657143 131.657143c14.628571 21.942857 36.571429 29.257143 58.514286 29.257143 21.942857-7.314286 43.885714-21.942857 43.885714-43.885714 7.314286-21.942857-7.314286-43.885714-29.257143-58.514286L585.142857 384l131.657143-124.342857z"  horiz-adv-x="1024" />

    
    <glyph glyph-name="suifangjihuaicon" unicode="&#58912;" d="M861.364706 896H162.635294C120.470588 896 90.352941 865.882353 90.352941 829.741176v-861.364705c0-60.235294 66.258824-90.352941 114.447059-54.211765l265.035294 192.752941c24.094118 18.070588 60.235294 18.070588 84.329412 0l265.035294-192.752941c48.188235-36.141176 114.447059-6.023529 114.447059 54.211765V829.741176c0 36.141176-30.117647 66.258824-72.282353 66.258824z m-162.635294-361.411765l-60.235294-66.258823c-6.023529-6.023529-12.047059-12.047059-12.047059-24.094118L644.517647 353.882353c6.023529-24.094118-18.070588-42.164706-42.164706-30.117647l-78.305882 48.188235c-6.023529 6.023529-18.070588 6.023529-24.094118 0l-78.305882-48.188235c-24.094118-6.023529-42.164706 6.023529-42.164706 30.117647l18.070588 90.352941c0 6.023529 0 18.070588-6.023529 24.094118L325.270588 534.588235c-18.070588 18.070588-6.023529 48.188235 12.047059 48.188236L427.670588 594.823529c6.023529 0 18.070588 6.023529 18.070588 18.070589l42.164706 84.329411c6.023529 6.023529 12.047059 12.047059 24.094118 12.047059s18.070588-6.023529 24.094118-18.070588l42.164706-84.329412c0-6.023529 12.047059-12.047059 18.070588-12.047059l90.352941-12.047058c18.070588 0 30.117647-30.117647 12.047059-48.188236z"  horiz-adv-x="1024" />

    
    <glyph glyph-name="rili" unicode="&#58913;" d="M848.457143 822.857143H731.428571V859.428571c0 21.942857-14.628571 36.571429-36.571428 36.571429S658.285714 881.371429 658.285714 859.428571V822.857143H329.142857V859.428571C329.142857 881.371429 314.514286 896 292.571429 896s-36.571429-14.628571-36.571429-36.571429V822.857143H146.285714C65.828571 822.857143 0 757.028571 0 676.571429v-658.285715c0-80.457143 65.828571-146.285714 146.285714-146.285714h702.171429c80.457143 0 146.285714 65.828571 146.285714 146.285714V676.571429c0 80.457143-65.828571 146.285714-146.285714 146.285714z m73.142857-804.571429c0-43.885714-29.257143-73.142857-73.142857-73.142857H146.285714c-43.885714 0-73.142857 29.257143-73.142857 73.142857V676.571429c0 43.885714 29.257143 73.142857 73.142857 73.142857h109.714286v-36.571429c0-21.942857 14.628571-36.571429 36.571429-36.571428s36.571429 14.628571 36.571428 36.571428V749.714286H658.285714v-36.571429c0-21.942857 14.628571-36.571429 36.571429-36.571428s36.571429 14.628571 36.571428 36.571428V749.714286h117.028572c43.885714 0 73.142857-29.257143 73.142857-73.142857v-658.285715zM307.2 588.8h-73.142857c-14.628571 0-29.257143-14.628571-29.257143-36.571429s14.628571-36.571429 36.571429-36.571428h73.142857c21.942857 0 36.571429 14.628571 36.571428 36.571428s-21.942857 36.571429-43.885714 36.571429z m212.114286 0h-73.142857c-21.942857 0-36.571429-14.628571-36.571429-36.571429s14.628571-36.571429 36.571429-36.571428h73.142857c21.942857 0 36.571429 14.628571 36.571428 36.571428s-14.628571 36.571429-36.571428 36.571429z m212.114285 0H658.285714c-21.942857 0-36.571429-14.628571-36.571428-36.571429s14.628571-36.571429 36.571428-36.571428h73.142857c21.942857 0 36.571429 14.628571 36.571429 36.571428s-14.628571 36.571429-36.571429 36.571429zM307.2 398.628571h-73.142857c-14.628571 0-29.257143-21.942857-29.257143-36.571428s14.628571-43.885714 36.571429-43.885714h73.142857c21.942857 0 36.571429 14.628571 36.571428 36.571428s-21.942857 43.885714-43.885714 43.885714z m212.114286 0h-73.142857c-21.942857 0-36.571429-14.628571-36.571429-36.571428s14.628571-36.571429 36.571429-36.571429h73.142857c21.942857 0 36.571429 14.628571 36.571428 36.571429s-14.628571 36.571429-36.571428 36.571428z m212.114285 0H658.285714c-21.942857 0-36.571429-14.628571-36.571428-36.571428s14.628571-36.571429 36.571428-36.571429h73.142857c21.942857 0 36.571429 14.628571 36.571429 36.571429s-14.628571 36.571429-36.571429 36.571428zM307.2 208.457143h-73.142857c-14.628571 0-29.257143-21.942857-29.257143-43.885714s14.628571-36.571429 36.571429-36.571429h73.142857c21.942857 0 36.571429 14.628571 36.571428 36.571429s-21.942857 43.885714-43.885714 43.885714z m212.114286 0h-73.142857c-21.942857 0-36.571429-14.628571-36.571429-36.571429s14.628571-36.571429 36.571429-36.571428h73.142857c21.942857 0 36.571429 14.628571 36.571428 36.571428s-14.628571 36.571429-36.571428 36.571429z m212.114285 0H658.285714c-21.942857 0-36.571429-14.628571-36.571428-36.571429s14.628571-36.571429 36.571428-36.571428h73.142857c21.942857 0 36.571429 14.628571 36.571429 36.571428s-14.628571 36.571429-36.571429 36.571429z"  horiz-adv-x="1024" />

    
    <glyph glyph-name="tiankongtiicon" unicode="&#58914;" d="M950.857143 896H73.142857C29.257143 896 0 866.742857 0 822.857143v-877.714286c0-43.885714 29.257143-73.142857 73.142857-73.142857h877.714286c43.885714 0 73.142857 29.257143 73.142857 73.142857V822.857143c0 43.885714-29.257143 73.142857-73.142857 73.142857z m0-914.285714c0-21.942857-14.628571-36.571429-36.571429-36.571429h-804.571428c-21.942857 0-36.571429 14.628571-36.571429 36.571429v804.571428c0 21.942857 14.628571 36.571429 36.571429 36.571429h804.571428c21.942857 0 36.571429-14.628571 36.571429-36.571429v-804.571428zM365.714286 596.114286h73.142857v-424.228572H365.714286v-51.2h292.571428v51.2H585.142857V596.114286h73.142857v51.2H365.714286z"  horiz-adv-x="1024" />

    
    <glyph glyph-name="xialaicon" unicode="&#58915;" d="M950.857143 896H73.142857C29.257143 896 0 866.742857 0 822.857143v-877.714286c0-43.885714 29.257143-73.142857 73.142857-73.142857h877.714286c43.885714 0 73.142857 29.257143 73.142857 73.142857V822.857143c0 43.885714-29.257143 73.142857-73.142857 73.142857z m0-914.285714c0-21.942857-14.628571-36.571429-36.571429-36.571429h-804.571428c-21.942857 0-36.571429 14.628571-36.571429 36.571429v804.571428c0 21.942857 14.628571 36.571429 36.571429 36.571429h804.571428c21.942857 0 36.571429-14.628571 36.571429-36.571429v-804.571428zM709.485714 530.285714H314.514286c-51.2 0-80.457143-65.828571-36.571429-109.714285l197.485714-204.8c21.942857-21.942857 58.514286-21.942857 80.457143 0l197.485715 204.8c36.571429 36.571429 7.314286 109.714286-43.885715 109.714285z"  horiz-adv-x="1024" />

    
    <glyph glyph-name="tianjialiebiao_icon" unicode="&#58917;" d="M512 896C232.106667 896 0 663.893333 0 384S232.106667-128 512-128 1024 104.106667 1024 384 791.893333 896 512 896z m204.8-546.133333h-136.533333c-6.826667 0-20.48-6.826667-27.306667-6.826667s-6.826667-20.48-6.826667-27.306667v-136.533333c0-13.653333-13.653333-34.133333-27.306666-34.133333-6.826667 0-20.48 0-27.306667 6.826666-6.826667 6.826667-13.653333 20.48-13.653333 27.306667v136.533333c0 6.826667-6.826667 20.48-6.826667 27.306667S450.56 349.866667 443.733333 349.866667h-136.533333c-13.653333 0-34.133333 13.653333-34.133333 27.306666 0 6.826667 0 20.48 6.826666 27.306667 6.826667 6.826667 20.48 13.653333 27.306667 13.653333h136.533333c6.826667 0 20.48 6.826667 27.306667 6.826667s6.826667 20.48 6.826667 27.306667v136.533333c0 13.653333 13.653333 34.133333 27.306666 34.133333 6.826667 0 20.48 0 27.306667-6.826666s13.653333-20.48 13.653333-27.306667v-136.533333c0-6.826667 6.826667-20.48 6.826667-27.306667s20.48-6.826667 27.306667-6.826667h136.533333c6.826667 0 20.48-6.826667 27.306667-13.653333 6.826667-6.826667 6.826667-13.653333 6.826666-27.306667s-20.48-27.306667-34.133333-27.306666z"  horiz-adv-x="1024" />

    
    <glyph glyph-name="green_guanbiyulan" unicode="&#58918;" d="M507.437624 693.227723c-349.782178 0-456.237624-324.435644-456.237624-324.435644s121.663366-324.435644 456.237624-324.435643 456.237624 324.435644 456.237624 324.435643S857.219802 693.227723 507.437624 693.227723z m0-481.584159c-86.178218 0-152.079208 70.970297-152.079208 152.079208s65.90099 152.079208 152.079208 152.079208 152.079208-70.970297 152.079208-152.079208-70.970297-152.079208-152.079208-152.079208zM400.982178 368.792079c0-60.831683 50.693069-106.455446 106.455446-106.455445s106.455446 50.693069 106.455445 106.455445-50.693069 106.455446-106.455445 106.455446-106.455446-45.623762-106.455446-106.455446zM157.655446-128c-5.069307 0-10.138614 0-15.207921 5.069307-10.138614 10.138614-15.207921 25.346535-5.069307 35.485148L811.59604 870.653465c10.138614 10.138614 25.346535 15.207921 35.485148 5.069307 15.207921-10.138614 15.207921-25.346535 5.069307-35.485148L177.932673-117.861386c-5.069307-5.069307-10.138614-10.138614-20.277227-10.138614z"  horiz-adv-x="1024" />

    
    <glyph glyph-name="green_phone" unicode="&#58921;" d="M1019.301984-12.215403c-20.432576-78.324875-163.460608-143.028032-320.110358-102.16288-156.649749 37.459723-313.299499 122.595456-439.300383 248.596342C133.890357 260.218944 52.160053 416.868693 11.294901 573.518442-26.164821 730.168192 35.132907 873.196224 113.457781 893.6288c20.432576 6.810859 102.16288 13.621717 224.758336-204.32576 34.054293-61.297728 6.810859-61.297728-71.514016-187.298614-37.459723-57.892299 23.838005-139.622603 23.838006-139.622602s40.865152-64.703157 85.135733-108.973739c44.270581-44.270581 108.973739-85.135733 108.973738-85.135733s81.730304-61.297728 139.622603-23.838005c126.000885 78.324875 126.000885 105.568309 187.298613 71.514016 224.758336-129.406315 214.542048-207.731189 207.73119-228.163766z"  horiz-adv-x="1024" />

    
    <glyph glyph-name="grey_bianji" unicode="&#58924;" d="M990.086679 70.01105h-96.176796V613.127072l-62.232044-62.232044v-475.22652H243.302149L939.169552 799.823204l-50.917127 39.60221L198.04248 115.270718V703.646409h446.939227l56.574585 62.232044H198.04248V862.055249c0 16.972376-11.314917 33.944751-33.944751 33.944751s-33.944751-16.972376-33.944752-33.944751v-96.176796H33.976182c-16.972376 0-33.944751-11.314917-33.944752-33.944751s11.314917-33.944751 33.944752-33.944752h96.176795V58.696133c0-33.944751 22.629834-56.574586 56.574586-56.574586h644.950276v-96.176796c0-16.972376 11.314917-33.944751 33.944752-33.944751s33.944751 11.314917 33.944751 33.944751v96.176796h96.176796c16.972376 0 33.944751 11.314917 33.944751 33.944751-5.657459 16.972376-16.972376 33.944751-39.60221 33.944752z"  horiz-adv-x="1035" />

    
    <glyph glyph-name="grey_shanchu" unicode="&#58925;" d="M995.555556 736.711111h-267.377778c-5.688889 0-11.377778 0-17.066667 5.688889L608.711111 839.111111H415.288889L312.888889 748.088889c0-5.688889-11.377778-11.377778-17.066667-11.377778H28.444444c-17.066667 0-28.444444 11.377778-28.444444 28.444445s11.377778 28.444444 28.444444 28.444444H284.444444L386.844444 890.311111c5.688889 0 11.377778 5.688889 17.066667 5.688889h216.177778c5.688889 0 11.377778-5.688889 17.066667-5.688889L739.555556 787.911111h256c17.066667 0 28.444444-11.377778 28.444444-28.444444 0-11.377778-11.377778-22.755556-28.444444-22.755556z m-187.733334-819.2H216.177778c-56.888889 0-108.088889 45.511111-108.088889 108.088889V605.866667c0 17.066667 11.377778 28.444444 28.444444 28.444444s28.444444-11.377778 28.444445-28.444444v-580.266667c0-28.444444 22.755556-51.2 51.2-51.2h591.644444c28.444444 0 51.2 22.755556 51.2 51.2V605.866667c0 17.066667 11.377778 28.444444 28.444445 28.444444s28.444444-11.377778 28.444444-28.444444v-580.266667c0-56.888889-45.511111-108.088889-108.088889-108.088889z m-432.355555 159.288889c-17.066667 0-28.444444 11.377778-28.444445 28.444444V605.866667c0 17.066667 11.377778 28.444444 28.444445 28.444444s28.444444-11.377778 28.444444-28.444444v-500.622223c0-17.066667-11.377778-28.444444-28.444444-28.444444z m273.066666 0c-17.066667 0-28.444444 11.377778-28.444444 28.444444V605.866667c0 17.066667 11.377778 28.444444 28.444444 28.444444s28.444444-11.377778 28.444445-28.444444v-500.622223c-5.688889-17.066667-17.066667-28.444444-28.444445-28.444444z"  horiz-adv-x="1024" />

    
    <glyph glyph-name="grey_fuzhi" unicode="&#58926;" d="M622.320442 103.955801H305.502762c-45.259669 0-79.20442 33.944751-79.204419 79.20442V816.79558C226.298343 862.055249 260.243094 896 305.502762 896h627.977901c50.917127 0 84.861878-33.944751 84.861878-79.20442v-627.9779c0-39.60221-28.287293-73.546961-67.889502-79.20442h-11.314917c-107.491713-5.657459-209.325967-5.657459-316.81768-5.657459z m0 67.889503h305.502762c11.314917 0 22.629834 5.657459 22.629835 22.629834v28.287293V782.850829v22.629834c0 16.972376-5.657459 22.629834-22.629835 28.287293H311.160221c-11.314917 0-16.972376-5.657459-22.629834-22.629834v-611.005525c0-16.972376 5.657459-22.629834 28.287293-28.287293H339.447514c96.176796-5.657459 186.696133 0 282.872928 0zM396.022099-122.342541H79.20442C33.944751-122.342541 0-88.39779 0-43.138122V590.497238C0 635.756906 33.944751 669.701657 79.20442 669.701657h79.20442c16.972376 0 33.944751-11.314917 33.944751-33.944751 0-16.972376-11.314917-33.944751-33.944751-33.944751H96.176796c-16.972376 0-22.629834-11.314917-28.287293-28.287293v-611.005525c0-11.314917 11.314917-22.629834 22.629834-22.629834h611.005525c16.972376 0 22.629834 11.314917 22.629834 28.287293v56.574585c0 22.629834 16.972376 33.944751 33.944752 33.944752s33.944751-16.972376 33.944751-39.60221v-67.889503c0-33.944751-22.629834-62.232044-50.917127-73.546961-5.657459 0-16.972376-5.657459-28.287293-5.657459C605.348066-122.342541 503.513812-122.342541 396.022099-122.342541zM582.718232 460.375691H429.966851c-16.972376 5.657459-33.944751 16.972376-33.944752 33.944751s11.314917 33.944751 28.287293 39.60221H582.718232v5.657458 141.436465c0 28.287293 16.972376 45.259669 39.60221 45.259668 22.629834 0 39.60221-16.972376 39.60221-39.60221v-147.093923h152.751381c16.972376 0 33.944751-11.314917 33.944752-28.287292s-5.657459-33.944751-22.629835-39.60221H667.58011h-5.657458v-152.751381c0-16.972376-5.657459-28.287293-22.629834-33.944752-16.972376-11.314917-28.287293-11.314917-39.60221 0-5.657459 5.657459-11.314917 16.972376-11.314917 28.287293V460.375691h-5.657459z"  horiz-adv-x="1024" />

    
    <glyph glyph-name="Q-icon" unicode="&#58927;" d="M518.4 595.2C435.2 595.2 364.8 512 364.8 377.6c0-134.4 64-217.6 153.6-217.6 32 0 64 12.8 83.2 32-19.2 12.8-25.6 25.6-70.4 32l6.4 38.4c44.8-6.4 64-19.2 89.6-38.4 25.6 38.4 44.8 89.6 44.8 153.6-6.4 140.8-70.4 217.6-153.6 217.6zM1024 384c0 281.6-230.4 512-512 512S0 665.6 0 384s230.4-512 512-512c96 0 185.6 25.6 262.4 76.8L1024-128l-102.4 204.8c64 89.6 102.4 192 102.4 307.2z m-288-320c-44.8 25.6-76.8 76.8-102.4 102.4-32-25.6-70.4-38.4-115.2-38.4-121.6 0-217.6 89.6-217.6 249.6s96 249.6 217.6 249.6 224-96 224-249.6c0-83.2-32-147.2-70.4-192 19.2-19.2 44.8-57.6 76.8-83.2l-12.8-38.4z"  horiz-adv-x="1024" />

    
    <glyph glyph-name="grey_yanjing" unicode="&#58928;" d="M708.923077 896C165.415385 896 0 391.876923 0 391.876923s189.046154-504.123077 708.923077-504.123077 708.923077 504.123077 708.923077 504.123077S1252.430769 896 708.923077 896z m0-748.307692c-133.907692 0-236.307692 110.276923-236.307692 236.307692s102.4 236.307692 236.307692 236.307692 236.307692-110.276923 236.307692-236.307692-110.276923-236.307692-236.307692-236.307692zM543.507692 391.876923c0-94.523077 78.769231-165.415385 165.415385-165.415385s165.415385 78.769231 165.415385 165.415385-78.769231 165.415385-165.415385 165.415385-165.415385-70.892308-165.415385-165.415385z"  horiz-adv-x="1417" />

    
    <glyph glyph-name="white_jinggao" unicode="&#58929;" d="M522.24 629.76h-20.48c-15.36 0-25.6-10.24-25.6-25.6v-291.84c0-15.36 10.24-25.6 25.6-25.6h25.6c15.36 0 25.6 10.24 25.6 25.6V599.04c0 15.36-15.36 30.72-30.72 30.72zM512 896C230.4 896 0 665.6 0 384s230.4-512 512-512 512 230.4 512 512S793.6 896 512 896z m-5.12-962.56c-245.76 0-445.44 199.68-445.44 445.44 0 245.76 199.68 445.44 445.44 445.44 245.76 0 445.44-199.68 445.44-445.44 0-245.76-199.68-445.44-445.44-445.44z m15.36 256h-20.48c-15.36 0-25.6-10.24-25.6-25.6v-25.6c0-15.36 10.24-25.6 25.6-25.6h20.48c15.36 0 25.6 10.24 25.6 25.6v25.6c0 10.24-10.24 25.6-25.6 25.6z"  horiz-adv-x="1024" />

    
    <glyph glyph-name="red_phone" unicode="&#58930;" d="M1019.301984-12.215403c-20.432576-78.324875-163.460608-143.028032-320.110358-102.16288-156.649749 37.459723-313.299499 122.595456-439.300383 248.596342C133.890357 260.218944 52.160053 416.868693 11.294901 573.518442-26.164821 730.168192 35.132907 873.196224 113.457781 893.6288c20.432576 6.810859 102.16288 13.621717 224.758336-204.32576 34.054293-61.297728 6.810859-61.297728-71.514016-187.298614-37.459723-57.892299 23.838005-139.622603 23.838006-139.622602s40.865152-64.703157 85.135733-108.973739c44.270581-44.270581 108.973739-85.135733 108.973738-85.135733s81.730304-61.297728 139.622603-23.838005c126.000885 78.324875 126.000885 105.568309 187.298613 71.514016 224.758336-129.406315 214.542048-207.731189 207.73119-228.163766z"  horiz-adv-x="1024" />

    
    <glyph glyph-name="suifangyuqi-icon-color" unicode="&#58932;" d="M512-128A512 512 0 1 1 512 896a512 512 0 0 1 0-1024z m-40.362667 772.949333h81.578667L539.306667 259.925333H484.693333l-13.141333 385.024zM512 195.84c14.933333 0 28.16-4.352 38.656-14.848a50.346667 50.346667 0 0 0 14.848-36.864c0-15.872-5.205333-28.16-14.848-37.802667A55.978667 55.978667 0 0 0 512 91.392a53.76 53.76 0 0 0-37.717333 14.933333 50.261333 50.261333 0 0 0-14.933334 37.802667c0 14.848 4.352 27.136 14.933334 36.864A50.261333 50.261333 0 0 0 512 195.84z"  horiz-adv-x="1024" />

    
    <glyph glyph-name="yisuifang-icon-color" unicode="&#58936;" d="M512-128A512 512 0 1 0 512 896a512 512 0 0 0 0-1024z m-64.853333 292.608h2.048a36.693333 36.693333 0 0 1 25.685333 12.373333l321.450667 370.602667a32.938667 32.938667 0 0 1-4.864 48.042667 37.376 37.376 0 0 1-50.688-4.608l-296.789334-342.186667-163.669333 148.650667a37.376 37.376 0 0 1-50.858667-1.024 32.938667 32.938667 0 0 1 1.024-48.298667l191.744-174.08a37.034667 37.034667 0 0 1 24.832-9.472z"  horiz-adv-x="1024" />

    
    <glyph glyph-name="daisuifangicon-color" unicode="&#58931;" d="M554.666667 384V682.666667a42.666667 42.666667 0 1 1-85.333334 0V298.666667h85.333334V384zM512-128A512 512 0 1 0 512 896a512 512 0 0 0 0-1024z m298.666667 469.333333A42.666667 42.666667 0 0 1 768 384H554.666667v-85.333333H768a42.666667 42.666667 0 0 1 42.666667 42.666666z"  horiz-adv-x="1024" />

    
    <glyph glyph-name="shijianweidao-icon-color" unicode="&#58934;" d="M512-128A512 512 0 1 0 512 896a512 512 0 0 0 0-1024zM256 298.666667a85.333333 85.333333 0 1 1 0 170.666666 85.333333 85.333333 0 0 1 0-170.666666z m256 0a85.333333 85.333333 0 1 1 0 170.666666 85.333333 85.333333 0 0 1 0-170.666666z m256 0a85.333333 85.333333 0 1 1 0 170.666666 85.333333 85.333333 0 0 1 0-170.666666z"  horiz-adv-x="1024" />

    
    <glyph glyph-name="tongyongbiaotiicon" unicode="&#58897;" d="M0 896h1024v-1024H0V896z m128-512v-384h384V384H128z"  horiz-adv-x="1024" />

    
    <glyph glyph-name="xuanxiangicon" unicode="&#58939;" d="M927.623529-128c54.211765 0 96.376471 42.164706 96.376471 96.376471s-42.164706 96.376471-96.376471 96.37647c-54.211765 0-96.376471-42.164706-96.37647-96.37647s42.164706-96.376471 96.37647-96.376471z m0 415.623529c54.211765 0 96.376471 42.164706 96.376471 96.376471s-42.164706 96.376471-96.376471 96.376471c-54.211765 0-96.376471-42.164706-96.37647-96.376471s42.164706-96.376471 96.37647-96.376471z m0 415.62353c54.211765 0 96.376471 42.164706 96.376471 96.37647S981.835294 896 927.623529 896c-54.211765 0-96.376471-42.164706-96.37647-96.376471s42.164706-96.376471 96.37647-96.37647zM512-128c54.211765 0 96.376471 42.164706 96.376471 96.376471s-42.164706 96.376471-96.376471 96.37647-96.376471-42.164706-96.376471-96.37647 42.164706-96.376471 96.376471-96.376471z m0 415.623529c54.211765 0 96.376471 42.164706 96.376471 96.376471s-42.164706 96.376471-96.376471 96.376471-96.376471-42.164706-96.376471-96.376471 42.164706-96.376471 96.376471-96.376471z m0 415.62353c54.211765 0 96.376471 42.164706 96.376471 96.37647S566.211765 896 512 896 415.623529 853.835294 415.623529 799.623529s42.164706-96.376471 96.376471-96.37647zM96.376471-128c54.211765 0 96.376471 42.164706 96.37647 96.376471s-42.164706 96.376471-96.37647 96.37647-96.376471-42.164706-96.376471-96.37647S42.164706-128 96.376471-128z m0 415.623529c54.211765 0 96.376471 42.164706 96.37647 96.376471s-42.164706 96.376471-96.37647 96.376471S0 438.211765 0 384s42.164706-96.376471 96.376471-96.376471z m0 415.62353c54.211765 0 96.376471 42.164706 96.37647 96.37647S150.588235 896 96.376471 896 0 853.835294 0 799.623529s42.164706-96.376471 96.376471-96.37647z"  horiz-adv-x="1024" />

    
    <glyph glyph-name="zhongxinfabuicon" unicode="&#58940;" d="M680.228571-62.171429c-7.314286 0-14.628571 7.314286-21.942857 14.628572L475.428571 259.657143 95.085714 288.914286C87.771429 288.914286 73.142857 303.542857 73.142857 310.857143s0 21.942857 14.628572 29.257143L906.971429 888.685714c7.314286 7.314286 21.942857 7.314286 29.257142 0 14.628571-7.314286 14.628571-14.628571 14.628572-29.257143L709.485714-40.228571c0-7.314286-7.314286-14.628571-29.257143-21.942858 7.314286 0 7.314286 0 0 0z"  horiz-adv-x="1024" />

    
    <glyph glyph-name="xinjianxuanxiangicon" unicode="&#58941;" d="M768 347.428571h-219.428571v-219.428571c0-14.628571-14.628571-36.571429-36.571429-36.571429s-36.571429 21.942857-36.571429 36.571429v219.428571h-219.428571c-14.628571 0-36.571429 14.628571-36.571429 36.571429s21.942857 36.571429 36.571429 36.571429h219.428571v219.428571c0 14.628571 14.628571 36.571429 36.571429 36.571429s36.571429-21.942857 36.571429-36.571429v-219.428571h219.428571c14.628571 0 36.571429-14.628571 36.571429-36.571429s-21.942857-36.571429-36.571429-36.571429zM512-84.114286C256-84.114286 43.885714 128 43.885714 384 43.885714 640 256 852.114286 512 852.114286c256 0 468.114286-212.114286 468.114286-468.114286 0-256-212.114286-468.114286-468.114286-468.114286z m0 877.714286C285.257143 793.6 102.4 610.742857 102.4 384s182.857143-409.6 409.6-409.6 409.6 182.857143 409.6 409.6S738.742857 793.6 512 793.6z"  horiz-adv-x="1024" />

    
    <glyph glyph-name="jieshu" unicode="&#58880;" d="M983.736896 582.676031A511.830669 511.830669 0 1 1 40.262362 185.324822 511.830669 511.830669 0 0 1 983.736896 582.676031z m-58.775222-372.356812A448.022446 448.022446 0 1 0 99.122889 557.852244a448.022446 448.022446 0 0 0 825.838785-347.533025zM605.664642 541.900188a31.562891 31.562891 0 0 1-31.733502 0.511831 30.70984 30.70984 0 0 1 0.511831-53.912831c48.879829-27.894771 72.76526-84.793281 58.178086-138.620806A124.545463 124.545463 0 0 0 511.999629 258.516607a124.545463 124.545463 0 0 0-120.621427 91.27647 122.583445 122.583445 0 0 0 58.178086 138.706111 30.70984 30.70984 0 0 1 0.51183 53.912831 31.562891 31.562891 0 0 1-31.733501-0.597136 184.429651 184.429651 0 0 1-93.579708-160.117694c0-101.939608 84.025535-184.856177 187.24472-184.856177s187.24472 82.916568 187.24472 184.856177c0 66.026156-35.657537 127.104616-93.579707 160.117694zM511.999629 396.540278a41.543589 41.543589 0 0 1 26.444585 9.127647 28.833128 28.833128 0 0 1 11.004359 22.179329V614.921364c0 17.231633-16.805107 31.221671-37.448944 31.22167s-37.448944-13.990038-37.448944-31.22167v-187.24472c0-8.274596 3.924035-16.207971 11.00436-22.094024a41.543589 41.543589 0 0 1 26.444584-9.127647z"  horiz-adv-x="1024" />

    
    <glyph glyph-name="danhangicon1" unicode="&#58883;" d="M950.857143 896H73.142857C32.914286 896 0 863.085714 0 822.857143v-877.714286c0-40.228571 32.914286-73.142857 73.142857-73.142857h877.714286c40.228571 0 73.142857 32.914286 73.142857 73.142857V822.857143c0 40.228571-32.914286 73.142857-73.142857 73.142857z m0-914.285714c0-21.942857-14.628571-36.571429-36.571429-36.571429h-804.571428c-21.942857 0-36.571429 14.628571-36.571429 36.571429v804.571428c0 21.942857 14.628571 36.571429 36.571429 36.571429h804.571428c21.942857 0 36.571429-14.628571 36.571429-36.571429v-804.571428zM219.428571 457.142857l585.142858 0 0-146.285714-585.142858 0 0 146.285714Z"  horiz-adv-x="1024" />

    


  </font>
</defs>
</svg>
